img image001 image001 image001 image001 image001 image001 image001 image001 image001 image001 image001 image001 image001 image001 image001

Planets Sun Sun Sun
Статистика раздачи
Автор: Nickolas3434 | Размер: 1.37 ГБ | Добавлен: 13 янв 2015
Раздают: 1027    Качают: 65
Скачать торрент
Скачать торрент
Описание торрента

СообщениеДобавлено: 13 янв 2015 

Информация о фильме
Оригинальное название: Джокер: Возмездие
Год выпуска: 2014
Жанр: Детектив
Режиссер: Сергей Арутюнян
В ролях: Дмитрий Клепацкий, Олег Шкловский, Евгений Березовский, Андрей Зайцев (II), Анна Невская, Юрий Кормушин, Вячеслав Кулаков, Роман Ладнев, Армен Петросян (II)
О фильме:
Артур Королёв скрывается за границей. Его жена Эльвира беременна, но у нее возникают проблемы со здоровьем, угрожающие ей и еще не родившемуся ребенку. Врачи назначают ей ежедневные уколы. Перерыв в приеме препарата более чем на 48 часов повлечет за собой смертельную угрозу жизни матери и ребенка. Врагам Артура удается выследить его, и они похищают жену в момент ее приезда в Москву. Артур понимает, что у него всего двое суток, чтобы найти Эльвиру. Он выставляет на часах обратный отсчет времени и пускается в погоню за похитителями...
Выпущено: Россия, Berg Sound
Продолжительность: 01:24:08
Перевод: Не требуется
Файл
Качество: SATRip (AVC)
Видео: MPEG-4 AVC, 2130 Кбит/с, 720x396
Аудио: AC3, 2 ch, 192 Кбит/с
General
Unique ID : 188916829644624955998979639346116257018 (0x8E200ED3EB48D941879AFDD8DFF964FA)
Complete name : C:Dzhoker.Vozmezdie.2014.SATRip.AVC.ExKinoRay.mkv
Format : Matroska
Format version : Version 4 / Version 2
File size : 1.37 GiB
Duration : 1h 24mn
Overall bit rate : 2 324 Kbps
Movie name : Dzhoker Vozmezdie 2014 from ExKinoRay
Encoded date : UTC 2015-01-11 06:48:08
Writing application : mkvmerge v6.6.0 ('The Edge Of The In Between') built on Dec 1 2013 17:55:00
Writing library : libebml v1.3.0 + libmatroska v1.4.1
Video
ID : 1
Format : AVC
Format/Info : Advanced Video Codec
Format profile : High@L4.1
Format settings, CABAC : Yes
Format settings, ReFrames : 10 frames
Codec ID : V_MPEG4/ISO/AVC
Duration : 1h 24mn
Bit rate : 2 130 Kbps
Width : 720 pixels
Height : 396 pixels
Display aspect ratio : 16:9
Frame rate mode : Constant
Frame rate : 25.000 fps
Color space : YUV
Chroma subsampling : 4:2:0
Bit depth : 8 bits
Scan type : Progressive
Bits/(Pixel*Frame) : 0.299
Stream size : 1.23 GiB (90%)
Title : Enigma-Vladislav71
Writing library : x264 core 133 r2334 a3ac64b
Encoding settings : cabac=1 / ref=10 / deblock=1:-2:-3 / analyse=0x3:0x113 / me=umh / subme=10 / psy=1 / psy_rd=1.05:0.20 / mixed_ref=1 / me_range=32 / chroma_me=1 / trellis=2 / 8x8dct=1 / cqm=0 / deadzone=21,11 / fast_pskip=0 / chroma_qp_offset=-3 / threads=12 / lookahead_threads=2 / sliced_threads=0 / nr=0 / decimate=0 / interlaced=0 / bluray_compat=0 / constrained_intra=0 / bframes=7 / b_pyramid=2 / b_adapt=2 / b_bias=0 / direct=3 / weightb=1 / open_gop=0 / weightp=2 / keyint=250 / keyint_min=25 / scenecut=40 / intra_refresh=0 / rc=2pass / mbtree=0 / bitrate=2130 / ratetol=1.0 / qcomp=0.60 / qpmin=0 / qpmax=51 / qpstep=4 / cplxblur=20.0 / qblur=0.5 / ip_ratio=1.40 / pb_ratio=1.30 / aq=1:1.00
Default : Yes
Forced : No
Color primaries : BT.601 PAL
Transfer characteristics : BT.470 System B, BT.470 System G
Matrix coefficients : BT.601
Audio
ID : 2
Format : AC-3
Format/Info : Audio Coding 3
Mode extension : CM (complete main)
Format settings, Endianness : Big
Codec ID : A_AC3
Duration : 1h 24mn
Bit rate mode : Constant
Bit rate : 192 Kbps
Channel(s) : 2 channels
Channel positions : Front: L R
Sampling rate : 48.0 KHz
Bit depth : 16 bits
Compression mode : Lossy
Stream size : 116 MiB (8%)
Language : Russian
Default : Yes
Forced : No



Релиз от:
Авторы релиза:



   Похожие торренты   Торрент   Размер 
В этой теме нет новых непрочитанных сообщений. Джокер: Возмездие (2014) SATRip от Files-x

1250 | 80

1.17 ГБ

В этой теме нет новых непрочитанных сообщений. Джокер: Возмездие (2014) DVB от Files-x

293 | 21

1.63 ГБ

В этой теме нет новых непрочитанных сообщений. Джокер: Возмездие (2014) WEB-DLRip от MegaPeer

559 | 22

1.37 ГБ

В этой теме нет новых непрочитанных сообщений. Джокер: Возмездие (2014) WEB-DLRip 720p от MegaPeer

178 | 5

1.7 ГБ

В этой теме нет новых непрочитанных сообщений. Джокер (1991) SATRip

20 | 12

797.05 МБ

В этой теме нет новых непрочитанных сообщений. Расплата (Возмездие) (2006) DVDRip от ExKinoRay

3 | 43

1.37 ГБ

В этой теме нет новых непрочитанных сообщений. Возмездие / На краю тьмы / Edge of Darkness (2010) BDRip-AVC от ExKinoRay

82 | 10

1.84 ГБ




Вы не можете начинать темы
Вы не можете отвечать на сообщения
Вы не можете редактировать свои сообщения
Вы не можете удалять свои сообщения
Вы не можете добавлять вложения

Перейти:  
Для Мосгорсуда, Роскомнадзора и рекламодателей: mosgorsud-torrent[собачка]yandex.ru
 Вход
ppkBB3cker v.2 © 2008-2014 @ PPK
[ Time : 0.565s | 16 Queries | GZIP : Off ]

Торрент трекер RUTOR.IN, Не можете зайти на rutor.org? Какой новый адрес рутор? Какое зеркало рутор? Не работает rutor.org и зеркала? Тогда наш торрент специально для вас. Rutor.in неофициальное зеркало rutor. В случае если у Вас заблокирован rutor или вдруг Вы не можете на него зайти, то Вы без труда сможете скачать бесплатно и без рекламы последние новинки кино, игр, сериалов и прочего у нас, на Rutor.in. Не нужно использовать прокси, чтобы зайти на рутор, достаточно воспользоваться нашим ресурсом. Все новые фильмы, игры, сериалы, книги и музыка за 2013 и 2014 годы через торрент бесплатно. Скачивайте фильмы в хорошем качестве, игры для пк, xbox, playstation без регистрации. У нас вы найдете новые Зарубежные сериалы и Русские сериалы 2013, 2014, 2015 годов. Оставайтесь с нами, качайте любимые фильмы, игры, сериалы, книги и музыку.
cron