img image001 image001 image001 image001 image001 image001 image001 image001 image001 image001 image001 image001 image001 image001 image001

Planets Sun Sun Sun
Статистика раздачи
Автор: Nickolas3434 | Размер: 10.35 ГБ | Добавлен: 13 янв 2015
Раздают: 51    Качают: 13
Скачать торрент
Скачать торрент
Описание торрента

СообщениеДобавлено: 13 янв 2015 

Информация о фильме
Название: Тайна королевы Анны, или Мушкетеры 30 лет спустя
Год выхода: 1993
Жанр: боевик, приключения, история
Режиссер: Георгий Юнгвальд-Хилькевич
В ролях: Михаил Боярский, Алиса Фрейндлих, Дмитрий Харатьян, Анатолий Равикович, Вениамин Смехов, Валентин Смирнитский, Игорь Старыгин, Владимир Лаптев, Арунас Сторпирстис, Андрей Соколов
О фильме:
Когда-то гасконец Д`Артаньян познакомился с тремя мушкетерами — Атосом, Портосом и Арамисом, и они стали неразлучными друзьями. Время идет. Прошло тридцать лет с тех времен…

Страна: Россия
Продолжительность: 158 мин. / 02:38
Перевод: не требуется
Файл
Кодек: MPEG2
Качество: 2xDVD9
Видео: PAL 4:3 (720x576@768x576) VBR 6946 Kbps, 25.000 fps
Звук: Dolby AC3, 6 ch, 48.0 KHz, 384 Kbps
Субтитры: отсутствуют
General
Complete name : E:Тайна королевы АнныПервая серияVTS_02_1.VOB
Format : MPEG-PS
File size : 1 024 MiB
Duration : 19mn 8s
Overall bit rate mode : Variable
Overall bit rate : 7 478 Kbps
Video
ID : 224 (0xE0)
Format : MPEG Video
Format version : Version 2
Format profile : Main@Main
Format settings, BVOP : Yes
Format settings, Matrix : Custom
Format settings, GOP : M=3, N=15
Format settings, picture struc : Frame
Duration : 19mn 8s
Bit rate mode : Variable
Bit rate : 6 946 Kbps
Maximum bit rate : 9 000 Kbps
Width : 720 pixels
Height : 576 pixels
Display aspect ratio : 4:3
Frame rate : 25.000 fps
Standard : PAL
Color space : YUV
Chroma subsampling : 4:2:0
Bit depth : 8 bits
Scan type : Interlaced
Scan order : Top Field First
Compression mode : Lossy
Bits/(Pixel*Frame) : 0.670
Time code of first frame : 00:00:00:00
Time code source : Group of pictures header
Stream size : 951 MiB (93%)
Audio
ID : 189 (0xBD)-128 (0x80)
Format : AC-3
Format/Info : Audio Coding 3
Mode extension : CM (complete main)
Format settings, Endianness : Big
Muxing mode : DVD-Video
Duration : 19mn 8s
Bit rate mode : Constant
Bit rate : 384 Kbps
Channel(s) : 6 channels
Channel positions : Front: L C R, Side: L R, LFE
Sampling rate : 48.0 KHz
Bit depth : 16 bits
Compression mode : Lossy
Stream size : 52.6 MiB (5%)
Menu




   Похожие торренты   Торрент   Размер 
В этой теме нет новых непрочитанных сообщений. Тайна королевы Анны или мушкетеры 30 лет спустя (1993) DVDRip-AVC от Тorrent-Хzona

138 | 12

2.37 ГБ

В этой теме нет новых непрочитанных сообщений. OST. Д'Артаньян и Три Мушкетера / Мушкетеры 20 лет спустя / Тайна королевы Анны (2001) MP3

7 | 5

122.15 МБ

В этой теме нет новых непрочитанных сообщений. Тайна королевы Анны (1993) DVDRip

45 | 14

1.37 ГБ

В этой теме нет новых непрочитанных сообщений. Мушкетеры 20 лет спустя (1992) 2xDVD9

50 | 15

14.82 ГБ

В этой теме нет новых непрочитанных сообщений. Мушкетеры 20 лет спустя (1992) DVDRip

86 | 22

4.1 ГБ

В этой теме нет новых непрочитанных сообщений. Мушкетеры 20 лет спустя (1992) DVDRip-AVC от Тorrent-Хzona

105 | 21

4.38 ГБ

В этой теме нет новых непрочитанных сообщений. Тайна Снежной королевы (1986) DVDRip

25 | 5

1.46 ГБ




Вы не можете начинать темы
Вы не можете отвечать на сообщения
Вы не можете редактировать свои сообщения
Вы не можете удалять свои сообщения
Вы не можете добавлять вложения

Перейти:  
Для Мосгорсуда, Роскомнадзора и рекламодателей: mosgorsud-torrent[собачка]yandex.ru
 Вход
ppkBB3cker v.2 © 2008-2014 @ PPK
[ Time : 0.047s | 15 Queries | GZIP : Off ]
CGP output time : 0.100s | 5 Queries | GZIP : Off

Торрент трекер RUTOR.IN, Не можете зайти на rutor.org? Какой новый адрес рутор? Какое зеркало рутор? Не работает rutor.org и зеркала? Тогда наш торрент специально для вас. Rutor.in неофициальное зеркало rutor. В случае если у Вас заблокирован rutor или вдруг Вы не можете на него зайти, то Вы без труда сможете скачать бесплатно и без рекламы последние новинки кино, игр, сериалов и прочего у нас, на Rutor.in. Не нужно использовать прокси, чтобы зайти на рутор, достаточно воспользоваться нашим ресурсом. Все новые фильмы, игры, сериалы, книги и музыка за 2013 и 2014 годы через торрент бесплатно. Скачивайте фильмы в хорошем качестве, игры для пк, xbox, playstation без регистрации. У нас вы найдете новые Зарубежные сериалы и Русские сериалы 2013, 2014, 2015 годов. Оставайтесь с нами, качайте любимые фильмы, игры, сериалы, книги и музыку.