img image001 image001 image001 image001 image001 image001 image001 image001 image001 image001 image001 image001 image001 image001 image001

Planets Sun Sun Sun
Статистика раздачи
Автор: Nickolas3434 | Размер: 701.56 МБ | Добавлен: 13 янв 2015
Раздают: 413    Качают: 12
Скачать торрент
Скачать торрент
Описание торрента

СообщениеДобавлено: 13 янв 2015 


Страна: СССР
Производство: Мосфильм
Жанр: Военный
Год выпуска: 1988
Продолжительность: 01:03:30
Язык: Русский
Режиссер: Сергей Нилов
В ролях: Вадим Пожарский, Юозас Киселюс, Евгений Жариков, Наталья Гвоздикова, Вадим Степашкин, Анна Тихонова, Ахат Тураев, Арсен Амаспюрянц, Зинаида Воркуль
Описание:"Я в плену. Да разве возможно такое?" - это не укладывается в голове. Прослужив в Афганистане всего два месяца, рядовой Николай Морозов оказывается в плену у душманов. Кажется, буквально секунду назад он вместе с младшим сержантом Хайбулиным находился на посту, охраняя дорогу, по которой благополучно прошла колонна с техникой. А теперь - остро пахнущий конским потом бок лошади и пыльная дорога перед глазами, разгуливающие по кишлаку афганцы с оружием, сложенный из грубых камней приземистый домишко с решёткой на окне и... полная неизвестность впереди. Фильм снят по рассказу Александра Проханова "Седой солдат".
Файл
Тип релиза: VHSRip
Видео: 640x480 (1.33:1), 23.976 fps, XviD build 50 ~1342 kbps avg, 0.18 bit/pixel
Аудио 1: 48 kHz, AC3 Dolby Digital, 2/0 (L,R) ch, ~192 kbps (русский)
Семпл
Общее
Полное имя : D:ААА2ШУРАВИ.avi
Формат : AVI
Формат/Информация : Audio Video Interleave
Размер файла : 702 Мбайт
Продолжительность : 1 ч. 3 м.
Общий поток : 1544 Кбит/сек
Программа кодирования : VirtualDubMod 1.5.10.3 | www.virtualdub-fr.org || (build 2550/release)
Библиотека кодирования : VirtualDubMod build 2550/release
Видео
Идентификатор : 0
Формат : MPEG-4 Visual
Профиль формата : Advanced Simple@L5
Параметр BVOP формата : 1
Параметр QPel формата : Нет
Параметр GMC формата : Без точки перехода
Параметр матрицы формата : Default (H.263)
Идентификатор кодека : XVID
Идентификатор кодека/Подсказка : XviD
Продолжительность : 1 ч. 3 м.
Битрейт : 1343 Кбит/сек
Ширина : 640 пикселей
Высота : 480 пикселей
Соотношение сторон : 4:3
Частота кадров : 23,976 кадра/сек
Цветовое пространство : YUV
Субдискретизация насыщенности : 4:2:0
Битовая глубина : 8 бит
Тип развёртки : Прогрессивная
Метод сжатия : С потерями
Бит/(Пиксели*Кадры) : 0.182
Размер потока : 610 Мбайт (87%)
Библиотека кодирования : XviD 1.2.1 (UTC 2008-12-04)
Аудио
Идентификатор : 1
Формат : AC-3
Формат/Информация : Audio Coding 3
Расширение режима : CM (complete main)
Параметр Endianness формата : Big
Идентификатор кодека : 2000
Продолжительность : 1 ч. 3 м.
Вид битрейта : Постоянный
Битрейт : 192 Кбит/сек
Каналы : 2 канала
Расположение каналов : Front: L R
Частота : 48,0 КГц
Битовая глубина : 16 бит
Метод сжатия : С потерями
Размер потока : 87,2 Мбайт (12%)
Выравнивание : Разделение по промежуткам
Продолжительность промежутка : 42 мс. (1,00 видеокадр)
Время предзагрузки промежутка : 500 мс.

Релиз:



   Похожие торренты   Торрент   Размер 
В этой теме нет новых непрочитанных сообщений. Майкл Джексон - Живой концерт на Уэмбли 1988 / Michael Jackson - Bad Tour Live At Wembley Stadium 1988 (2012) VHSRip от FilmRus

78 | 17

2.22 ГБ

В этой теме нет новых непрочитанных сообщений. Домино / Domino (1988) VHSRip | A

31 | 23

699.04 МБ

В этой теме нет новых непрочитанных сообщений. Заплатки - Видеография (1988-2001) VHSRip

66 | 14

1.76 ГБ

В этой теме нет новых непрочитанных сообщений. Нечто из другого мира / Something Is Out There (1988) VHSRip-AVC

74 | 4

1.44 ГБ

В этой теме нет новых непрочитанных сообщений. Город призраков / Ghost Town (1988) VHSRip

1 | 10

771.93 МБ

В этой теме нет новых непрочитанных сообщений. Омолаживатель / Омолаживание / Rejuvenatrix / The Rejuvenator (1988) VHSRip

261 | 14

759.96 МБ

В этой теме нет новых непрочитанных сообщений. Наутилус Помпилиус - Клипография (1988-1997) VHSRip

30 | 9

696.49 МБ




Вы не можете начинать темы
Вы не можете отвечать на сообщения
Вы не можете редактировать свои сообщения
Вы не можете удалять свои сообщения
Вы не можете добавлять вложения

Перейти:  
Для Мосгорсуда, Роскомнадзора и рекламодателей: mosgorsud-torrent[собачка]yandex.ru
 Вход
ppkBB3cker v.2 © 2008-2014 @ PPK
[ Time : 0.033s | 14 Queries | GZIP : Off ]

Торрент трекер RUTOR.IN, Не можете зайти на rutor.org? Какой новый адрес рутор? Какое зеркало рутор? Не работает rutor.org и зеркала? Тогда наш торрент специально для вас. Rutor.in неофициальное зеркало rutor. В случае если у Вас заблокирован rutor или вдруг Вы не можете на него зайти, то Вы без труда сможете скачать бесплатно и без рекламы последние новинки кино, игр, сериалов и прочего у нас, на Rutor.in. Не нужно использовать прокси, чтобы зайти на рутор, достаточно воспользоваться нашим ресурсом. Все новые фильмы, игры, сериалы, книги и музыка за 2013 и 2014 годы через торрент бесплатно. Скачивайте фильмы в хорошем качестве, игры для пк, xbox, playstation без регистрации. У нас вы найдете новые Зарубежные сериалы и Русские сериалы 2013, 2014, 2015 годов. Оставайтесь с нами, качайте любимые фильмы, игры, сериалы, книги и музыку.