img image001 image001 image001 image001 image001 image001 image001 image001 image001 image001 image001 image001 image001 image001 image001

Planets Sun Sun Sun
Статистика раздачи
Автор: Nickolas3434 | Размер: 1.76 ГБ | Добавлен: 15 янв 2015
Раздают: 386    Качают: 34
Скачать торрент
Скачать торрент
Описание торрента

СообщениеДобавлено: 15 янв 2015 

Год выпуска: 2014
Страна: Россия
Жанр: комедия, приключения
Продолжительность: 01:24:40
Перевод: Оригинал (русский)
Режиссер: Игорь Волошин
В ролях: Сергей Светлаков, Маргарита Левиева, Павел Деревянко, Майкл Мэдсен, Ингеборга Дапкунайте, Спартак Кондауров, Максим Голополосов, Иван Ургант, Виктор Проскурин, Ольга Симонова
Описание: Это история про парня, который душу готов продать, лишь бы набрать миллион просмотров для своего видео на YouTube. На пути к своей цели он оказывается в скором поезде «Москва — Владивосток», где сталкивается с американской актрисой, страдающей аэрофобией. В пути незнакомцев ожидают такие приключения, что они отстают от поезда, который пытаются догнать, продвигаясь по нашей непредсказуемой и сказочной России-матушке… Ведь каждому из них нужно оказаться во Владивостоке ровно через 7 дней — по причинам, которые они тщательно скрывают друг от друга.

Видео кодек: MPEG-4 AVC
Качество: BDRip 720p
Параметры Видео: 1280x544, 25 fps; ~2 808 kbps avg
Параметры Звука: 48.0 KHz, AAC, ~165.00 kbps avg, 2ch
Формат: mp4
Релиз:


General
Complete name : E:Skoryi.Moskva-Rossia.2014.O.BDRip.720p_KinoGadget.mp4
Format : MPEG-4
Format profile : Base Media
Codec ID : isom
File size : 1.76 GiB
Duration : 1h 24mn
Overall bit rate mode : Variable
Overall bit rate : 2 979 Kbps
Movie name : Скорый Москва-Россия
Performer : Игорь Волошин
Genre : Comedy
ContentType : Short Film
Recorded date : 2014
Encoded date : UTC 2015-01-13 14:38:59
Tagged date : UTC 2015-01-13 14:47:39
Cover : Yes
LongDeion : Это история про парня, который душу готов продать, лишь бы набрать миллион просмотров для своего видео на YouTube. На пути к своей цели он оказывается в скором поезде «Москва — Владивосток», где сталкивается с американской актрисой, страдающей аэрофобией. В пути незнакомцев ожидают такие приключения, что они отстают от поезда, который пытаются догнать, продвигаясь по нашей непредсказуемой и сказочной России-матушке… Ведь каждому из них нужно оказаться во Владивостоке ровно через 7 дней — по причинам, которые они тщательно скрывают друг от друга.
HDVideo : Yes
Video
ID : 1
Format : AVC
Format/Info : Advanced Video Codec
Format profile : High@L4.1
Format settings, CABAC : Yes
Format settings, ReFrames : 11 frames
Codec ID : avc1
Codec ID/Info : Advanced Video Coding
Duration : 1h 24mn
Bit rate : 2 808 Kbps
Maximum bit rate : 14.1 Mbps
Width : 1 280 pixels
Height : 544 pixels
Display aspect ratio : 2.35:1
Frame rate mode : Constant
Frame rate : 25.000 fps
Color space : YUV
Chroma subsampling : 4:2:0
Bit depth : 8 bits
Scan type : Progressive
Bits/(Pixel*Frame) : 0.161
Stream size : 1.66 GiB (94%)
Writing library : x264 core 144 r2525 40bb568
Encoding settings : cabac=1 / ref=11 / deblock=1:-1:-1 / analyse=0x3:0x133 / me=umh / subme=10 / psy=1 / psy_rd=1.00:0.20 / mixed_ref=1 / me_range=24 / chroma_me=1 / trellis=2 / 8x8dct=1 / cqm=0 / deadzone=21,11 / fast_pskip=1 / chroma_qp_offset=-3 / threads=3 / lookahead_threads=1 / sliced_threads=0 / nr=0 / decimate=1 / interlaced=0 / bluray_compat=0 / constrained_intra=0 / bframes=6 / b_pyramid=2 / b_adapt=2 / b_bias=0 / direct=3 / weightb=1 / open_gop=0 / weightp=2 / keyint=250 / keyint_min=1 / scenecut=40 / intra_refresh=0 / rc_lookahead=60 / rc=crf / mbtree=1 / crf=21.0 / qcomp=0.60 / qpmin=0 / qpmax=69 / qpstep=4 / ip_ratio=1.40 / aq=1:1.70
Encoded date : UTC 2015-01-13 09:57:22
Tagged date : UTC 2015-01-13 14:40:21
Audio
ID : 2
Format : AAC
Format/Info : Advanced Audio Codec
Format profile : LC
Codec ID : 40
Duration : 1h 23mn
Duration_FirstFrame : 64ms
Bit rate mode : Variable
Bit rate : 165 Kbps
Maximum bit rate : 230 Kbps
Channel count : 2 channels
Channel positions : Front: L R
Sampling rate : 48.0 KHz
Compression mode : Lossy
Stream size : 98.4 MiB (5%)
Language : Russian
Tagged date : UTC 2015-01-13 14:40:21





   Похожие торренты   Торрент   Размер 
В этой теме нет новых непрочитанных сообщений. Скорый Москва-Россия (2014) BDRip 720p | Лицензия

1462 | 233

4.17 ГБ

В этой теме нет новых непрочитанных сообщений. Скорый «Москва-Россия» (2014) BDRip 720p от Leonardo and Scarabey

401 | 37

2.98 ГБ

В этой теме нет новых непрочитанных сообщений. Скорый «Москва-Россия» (2014) BDRip от ivandubskoj

1233 | 107

1.46 ГБ

В этой теме нет новых непрочитанных сообщений. Скорый «Москва-Россия» (2014) BDRip от HQCLUB | Лицензия

6971 | 361

1.45 ГБ

В этой теме нет новых непрочитанных сообщений. Скорый Москва-Россия (2014) BDRip 1080p | Лицензия

393 | 32

7.53 ГБ

В этой теме нет новых непрочитанных сообщений. Скорый «Москва-Россия» (2014) BDRip-AVC от Leonardo and Scarabey

322 | 25

1.78 ГБ

В этой теме нет новых непрочитанных сообщений. Скорый «Москва-Россия» (2014) BDRip-AVC от HELLYWOOD | Лицензия

979 | 44

1.46 ГБ




Вы не можете начинать темы
Вы не можете отвечать на сообщения
Вы не можете редактировать свои сообщения
Вы не можете удалять свои сообщения
Вы не можете добавлять вложения

Перейти:  
Для Мосгорсуда, Роскомнадзора и рекламодателей: mosgorsud-torrent[собачка]yandex.ru
 Вход
ppkBB3cker v.2 © 2008-2014 @ PPK
[ Time : 0.051s | 15 Queries | GZIP : Off ]

cron