img image001 image001 image001 image001 image001 image001 image001 image001 image001 image001 image001 image001 image001 image001 image001

Planets Sun Sun Sun
Статистика раздачи
Автор: Nickolas3434 | Размер: 3.04 ГБ | Добавлен: 15 янв 2015
Раздают: 316    Качают: 42
Скачать торрент
Скачать торрент
Описание торрента

СообщениеДобавлено: 15 янв 2015 

Информация о фильме
Название: Тёмный мир: Равновесие
Год выхода: 2013
Жанр: фэнтези, приключения
Режиссер: Олег Асадулин
В ролях: Мария Пирогова, Павел Прилучный, Макар Запорожский, Евгения Брик, Александр Ратников, Владислав Абашин, Петр Семак, Алиса Хазанова, Валерий Опёнкин, Тимофей Носков
О фильме: Каждый день они крадут твои силы, твои эмоции, твою любовь. Мы называем их Тени. Работа таких, как мы — доставлять их обратно в Тёмный мир. Надвигается катастрофа, и человечество может оказаться во власти тьмы…
И только мы можем сохранить равновесие.

Выпущено: Централ Партнершип
Продолжительность: 01:35:22
Перевод: Оригинал (лицензия)
Файл
Кодек: x264
Качество: BDRip (источник: Blu-ray Disc)
Видео: 1280x720 (16:9), 23.976 fps, 4120 kbps
Аудио: AC-3, 6 ch, 448 kbps
Скачать: сэмпл
Скриншоты

Общее
Уникальный идентификатор : 238881672398559185065988271880142064375 (0xB3B6EFC543BBDED795E5926A96640AF7)
Полное имя : Temnyy.mir.Ravnovesie.2013.BDRip.720p.Rus.mkv
Формат : Matroska
Версия формата : Version 2
Размер файла : 3,04 Гбайт
Продолжительность : 1 ч. 35 м.
Общий поток : 4570 Кбит/сек
Название фильма : Тёмный мир: Равновесие (2013) | GER Transfer
Дата кодирования : UTC 2015-01-13 17:30:45
Программа кодирования : mkvmerge v5.8.0 ('No Sleep / Pillow') built on Sep 2 2012 15:37:04
Библиотека кодирования : libebml v1.2.3 + libmatroska v1.3.0
Видео
Идентификатор : 1
Формат : AVC
Формат/Информация : Advanced Video Codec
Профиль формата : High@L4.1
Параметр CABAC формата : Да
Параметр ReFrames формата : 8 кадров
Идентификатор кодека : V_MPEG4/ISO/AVC
Продолжительность : 1 ч. 35 м.
Битрейт : 4121 Кбит/сек
Ширина : 1280 пикселей
Высота : 720 пикселей
Соотношение сторон : 16:9
Режим частоты кадров : Постоянный
Частота кадров : 23,976 кадра/сек
Цветовое пространство : YUV
Субдискретизация насыщенности : 4:2:0
Битовая глубина : 8 бит
Тип развёртки : Прогрессивная
Бит/(Пиксели*Кадры) : 0.187
Размер потока : 2,69 Гбайт (88%)
Заголовок : Release by AlexKa
Библиотека кодирования : x264 core 144 r2525 40bb568
Настройки программы : cabac=1 / ref=8 / deblock=1:-3:-3 / analyse=0x3:0x133 / me=umh / subme=11 / psy=1 / psy_rd=1.00:0.00 / mixed_ref=1 / me_range=32 / chroma_me=1 / trellis=2 / 8x8dct=1 / cqm=0 / deadzone=21,11 / fast_pskip=0 / chroma_qp_offset=-2 / threads=12 / lookahead_threads=1 / sliced_threads=0 / nr=0 / decimate=0 / interlaced=0 / bluray_compat=0 / constrained_intra=0 / bframes=6 / b_pyramid=2 / b_adapt=2 / b_bias=0 / direct=3 / weightb=1 / open_gop=0 / weightp=2 / keyint=240 / keyint_min=23 / scenecut=40 / intra_refresh=0 / rc=2pass / mbtree=0 / bitrate=4121 / ratetol=1.0 / qcomp=0.60 / qpmin=0 / qpmax=69 / qpstep=4 / cplxblur=20.0 / qblur=0.5 / ip_ratio=1.40 / pb_ratio=1.30 / aq=1:0.70
Язык : Russian
Аудио
Идентификатор : 2
Формат : AC-3
Формат/Информация : Audio Coding 3
Расширение режима : CM (complete main)
Параметр Endianness формата : Big
Идентификатор кодека : A_AC3
Продолжительность : 1 ч. 35 м.
Вид битрейта : Постоянный
Битрейт : 448 Кбит/сек
Каналы : 6 каналов
Расположение каналов : Front: L C R, Side: L R, LFE
Частота : 48,0 КГц
Битовая глубина : 16 бит
Метод сжатия : С потерями
Размер потока : 306 Мбайт (10%)
Заголовок : Rus
Язык : Russian
Меню
00:00:00.000 : :Chapter 01
00:03:27.999 : :Chapter 02
00:11:32.024 : :Chapter 03
00:20:23.013 : :Chapter 04
00:29:27.932 : :Chapter 05
00:38:56.959 : :Chapter 06
00:44:51.980 : :Chapter 07
00:53:11.938 : :Chapter 08
00:59:53.965 : :Chapter 09
01:09:16.902 : :Chapter 10
01:20:12.933 : :Chapter 11
01:31:19.932 : :Chapter 12
01:35:21.674 : :Chapter 13



   Похожие торренты   Торрент   Размер 
В этой теме нет новых непрочитанных сообщений. Тёмный мир: Равновесие (2013) BDRip-AVC от HELLYWOOD | Ger-Transfer | Лицензия

108 | 11

2.18 ГБ

В этой теме нет новых непрочитанных сообщений. Тёмный мир: Равновесие (2013) BDRemux 1080р от ExKinoRay | Ger Transfer | Лицензия

33 | 12

17.5 ГБ

В этой теме нет новых непрочитанных сообщений. Тёмный мир: Равновесие (2013) BDRip 720p | Лицензия

58 | 9

4 ГБ

В этой теме нет новых непрочитанных сообщений. Тёмный мир: Равновесие (2013) WEB-DL 720p

126 | 8

3.02 ГБ

В этой теме нет новых непрочитанных сообщений. Тёмный мир: Равновесие (2013) BDRip от HQCLUB | Лицензия

157 | 9

1.45 ГБ

В этой теме нет новых непрочитанных сообщений. Тёмный мир: Равновесие (2013) WEB-DLRip

93 | 3

1.46 ГБ

В этой теме нет новых непрочитанных сообщений. Тёмный мир: Равновесие (2013) WEB-DLRip | КПК | от -=HD-NET=-

11 | 2

383.74 МБ




Вы не можете начинать темы
Вы не можете отвечать на сообщения
Вы не можете редактировать свои сообщения
Вы не можете удалять свои сообщения
Вы не можете добавлять вложения

Перейти:  
Для Мосгорсуда, Роскомнадзора и рекламодателей: mosgorsud-torrent[собачка]yandex.ru
 Вход
ppkBB3cker v.2 © 2008-2014 @ PPK
[ Time : 0.055s | 15 Queries | GZIP : Off ]

Торрент трекер RUTOR.IN, Не можете зайти на rutor.org? Какой новый адрес рутор? Какое зеркало рутор? Не работает rutor.org и зеркала? Тогда наш торрент специально для вас. Rutor.in неофициальное зеркало rutor. В случае если у Вас заблокирован rutor или вдруг Вы не можете на него зайти, то Вы без труда сможете скачать бесплатно и без рекламы последние новинки кино, игр, сериалов и прочего у нас, на Rutor.in. Не нужно использовать прокси, чтобы зайти на рутор, достаточно воспользоваться нашим ресурсом. Все новые фильмы, игры, сериалы, книги и музыка за 2013 и 2014 годы через торрент бесплатно. Скачивайте фильмы в хорошем качестве, игры для пк, xbox, playstation без регистрации. У нас вы найдете новые Зарубежные сериалы и Русские сериалы 2013, 2014, 2015 годов. Оставайтесь с нами, качайте любимые фильмы, игры, сериалы, книги и музыку.