img image001 image001 image001 image001 image001 image001 image001 image001 image001 image001 image001 image001 image001 image001 image001

Planets Sun Sun Sun
Статистика раздачи
Автор: Nickolas3434 | Размер: 1.47 ГБ | Добавлен: 16 янв 2015
Раздают: 2635    Качают: 84
Скачать торрент
Скачать торрент
Описание торрента

СообщениеДобавлено: 16 янв 2015 

Информация о фильме
Название: Левиафан
Год выхода: 2014
Жанр: Драма
Режиссер: Андрей Звягинцев
В ролях: Алексей Серебряков, Елена Лядова, Владимир Вдовиченков, Роман Мадянов, Анна Уколова, Алексей Розин, Сергей Походаев, Валерий Гришко, Сергей Бачурский, Платон Каменев
О фильме:
Главный герой, Николай, живёт в маленьком городке близ Баренцева моря, в хижине на берегу небольшой бухты, куда порой заплывают киты. Когда продажный мэр города пытается конфисковать почти всё имущество Николая — дом, автомастерскую и его собственные земли — главный герой прибегает к помощи старого друга по армии, ныне уважаемого адвоката, Дмитрия, который определяет единственный способ борьбы с политиком — найти на него убойный компромат.

Страна: Россия
Студия: Нон-стоп Продакшн
Продолжительность: 02:21:21
Перевод: Оригинал
Файл
Кодек: XviD
Качество: WEB-DLRip
Видео: 720x304 (2,35:1), 24,000 fps, XviD 73 ~1284 kbps avg, 0.244 bit/pixel
Звук: 48.0 kHz, AC3, 2 ch, 192 Kbps
Субтитры: Английские (вшитые)
Общее
Полное имя : D:ВидеоLev1afaH.2014.O.WEB-DLRip by Vovan366.avi
Формат : AVI
Формат/Информация : Audio Video Interleave
Размер файла : 1,47 Гбайт
Продолжительность : 2 ч. 21 м.
Общий поток : 1485 Кбит/сек
Программа кодирования : VirtualDubMod 1.5.10.3 (build 2550/release)
Библиотека кодирования : VirtualDubMod build 2550/release
Видео
Идентификатор : 0
Формат : MPEG-4 Visual
Профиль формата : Advanced Simple@L5
Параметр BVOP формата : 2
Параметр QPel формата : Нет
Параметр GMC формата : Без точки перехода
Параметр матрицы формата : Выборочная
Идентификатор кодека : XVID
Идентификатор кодека/Подсказка : XviD
Продолжительность : 2 ч. 21 м.
Битрейт : 1284 Кбит/сек
Ширина : 720 пикселей
Высота : 304 пикселя
Соотношение сторон : 2,35:1
Частота кадров : 24,000 кадра/сек
Цветовое пространство : YUV
Субдискретизация насыщенности : 4:2:0
Битовая глубина : 8 бит
Тип развёртки : Прогрессивная
Метод сжатия : С потерями
Бит/(Пиксели*Кадры) : 0.244
Размер потока : 1,27 Гбайт (86%)
Библиотека кодирования : XviD 73
Аудио
Идентификатор : 1
Формат : AC-3
Формат/Информация : Audio Coding 3
Расширение режима : CM (complete main)
Параметр Endianness формата : Big
Идентификатор кодека : 2000
Продолжительность : 2 ч. 21 м.
Вид битрейта : Постоянный
Битрейт : 192 Кбит/сек
Каналы : 2 канала
Расположение каналов : Front: L R
Частота : 48,0 КГц
Битовая глубина : 16 бит
Метод сжатия : С потерями
Размер потока : 194 Мбайт (13%)
Выравнивание : Разделение по промежуткам
Продолжительность промежутка : 42 мс. (1,00 видеокадр)
Время предзагрузки промежутка : 500 мс.





   Похожие торренты   Торрент   Размер 
В этой теме нет новых непрочитанных сообщений. Левиафан (2014) WEB-DLRip-AVC | iTunes

3239 | 83

2.18 ГБ

В этой теме нет новых непрочитанных сообщений. Левиафан (2014) WEB-DLRip от Scarabey | iTunes

1739 | 116

799.83 МБ

В этой теме нет новых непрочитанных сообщений. Левиафан (2014) WEB-DLRip от Scarabey | iTunes

95050 | 3652

1.45 ГБ

В этой теме нет новых непрочитанных сообщений. Левиафан (2014) WEB-DL 720p | iTunes

8814 | 432

4.31 ГБ

В этой теме нет новых непрочитанных сообщений. Левиафан / Левиафан (2014) BDRip 1080p

296 | 27

14.95 ГБ

В этой теме нет новых непрочитанных сообщений. Левиафан (2014) WEBRip-AVC

3404 | 363

1.47 ГБ

В этой теме нет новых непрочитанных сообщений. Левиафан (2014) HDRip от -=HD-NET=- | КПК

65 | 9

533.77 МБ




Вы не можете начинать темы
Вы не можете отвечать на сообщения
Вы не можете редактировать свои сообщения
Вы не можете удалять свои сообщения
Вы не можете добавлять вложения

Перейти:  
Для Мосгорсуда, Роскомнадзора и рекламодателей: mosgorsud-torrent[собачка]yandex.ru
 Вход
ppkBB3cker v.2 © 2008-2014 @ PPK
[ Time : 0.036s | 15 Queries | GZIP : Off ]

Торрент трекер RUTOR.IN, Не можете зайти на rutor.org? Какой новый адрес рутор? Какое зеркало рутор? Не работает rutor.org и зеркала? Тогда наш торрент специально для вас. Rutor.in неофициальное зеркало rutor. В случае если у Вас заблокирован rutor или вдруг Вы не можете на него зайти, то Вы без труда сможете скачать бесплатно и без рекламы последние новинки кино, игр, сериалов и прочего у нас, на Rutor.in. Не нужно использовать прокси, чтобы зайти на рутор, достаточно воспользоваться нашим ресурсом. Все новые фильмы, игры, сериалы, книги и музыка за 2013 и 2014 годы через торрент бесплатно. Скачивайте фильмы в хорошем качестве, игры для пк, xbox, playstation без регистрации. У нас вы найдете новые Зарубежные сериалы и Русские сериалы 2013, 2014, 2015 годов. Оставайтесь с нами, качайте любимые фильмы, игры, сериалы, книги и музыку.