img image001 image001 image001 image001 image001 image001 image001 image001 image001 image001 image001 image001 image001 image001 image001

Planets Sun Sun Sun
Статистика раздачи
Автор: Nickolas3434 | Размер: 1.09 ГБ | Добавлен: 20 янв 2015
Раздают: 35    Качают: 12
Скачать торрент
Скачать торрент
Описание торрента

СообщениеДобавлено: 20 янв 2015 

Страна: СССР
Производство: Ленфильм
Жанр: военный
Год выпуска: 1940
Продолжительность: 1:09:04
Перевод: Не требуется
Cубтитры: нет
Оригинальная аудиодорожка: русский
Режиссер: Павел Петров-Бытов
В ролях:
Константин Скоробогатов, А. Чекаевский, Владимир Честноков, Владимир Гардин, А. Виолинов, Евгений Григорьев, Геннадий Мичурин, Александр Мельников, Василий Сафронов, Павел Кадочников...
Описание:
О борьбе Красной Армии и рабочих революционного Петрограда против белогвардейцев в 1919 году...





Источник: DVD9 R5
Качество видео: DVDRip
Формат видео: AVI
Виде: 688x512 (4:3), 25 fps, XviD ~ 2042 kbps avg, 0.232 bit/pixel
Аудио: 48 kHz, Dolby Digital AC3 2.0, 192 kbps
Раздача от:
Общее
Полное имя : Razgrom.Judenicha.1940.DVDRip_[New-team]_by_AVP_Studio.avi
Формат : AVI
Формат/Информация : Audio Video Interleave
Размер файла : 1,09 Гбайт
Продолжительность : 1 ч. 9 м.
Общий поток : 2243 Кбит/сек
Программа кодирования : VirtualDubModRus 1.5.10.2 (build 2542/release)
Библиотека кодирования : VirtualDubMod build 2542/release
Видео
Идентификатор : 0
Формат : MPEG-4 Visual
Профиль формата : Advanced Simple@L5
Параметр BVOP формата : 1
Параметр QPel формата : Нет
Параметр GMC формата : Без точки перехода
Параметр матрицы формата : Выборочная
Идентификатор кодека : XVID
Идентификатор кодека/Подсказка : XviD
Продолжительность : 1 ч. 9 м.
Битрейт : 2042 Кбит/сек
Ширина : 688 пикселей
Высота : 512 пикселей
Соотношение сторон : 4:3
Частота кадров : 25,000 кадров/сек
Цветовое пространство : YUV
Субдискретизация насыщенности : 4:2:0
Битовая глубина : 8 бит
Тип развёртки : Прогрессивная
Метод сжатия : С потерями
Бит/(Пиксели*Кадры) : 0.232
Размер потока : 1019 Мбайт (91%)
Библиотека кодирования : XviD 73
Аудио
Идентификатор : 1
Формат : AC-3
Формат/Информация : Audio Coding 3
Расширение режима : CM (complete main)
Параметр Endianness формата : Big
Идентификатор кодека : 2000
Продолжительность : 1 ч. 9 м.
Вид битрейта : Постоянный
Битрейт : 192 Кбит/сек
Каналы : 2 канала
Расположение каналов : Front: L R
Частота : 48,0 КГц
Битовая глубина : 16 бит
Метод сжатия : С потерями
Размер потока : 95,8 Мбайт (9%)
Выравнивание : Разделение по промежуткам
Продолжительность промежутка : 40 мс. (1,00 видеокадр)
Время предзагрузки промежутка : 500 мс





   Похожие торренты   Торрент   Размер 
В этой теме нет новых непрочитанных сообщений. Разгром Юденича (1940) DVDRip-AVC от New-Team

46 | 12

1.09 ГБ

В этой теме нет новых непрочитанных сообщений. Разгром Юденича (1940) DVDRip от New-Team

26 | 15

745.04 МБ

В этой теме нет новых непрочитанных сообщений. Хиты СССP: Мы из Кронштадта / Разгром Юденича / Друзья / Федька (1936 - 1940) DVDRip от Generalfilm

9 | 5

2.74 ГБ

В этой теме нет новых непрочитанных сообщений. Разгром немецких войск под Москвой (1942) DVDRip от New-Team

29 | 4

745.03 МБ

В этой теме нет новых непрочитанных сообщений. Разгром немецких войск под Москвой (1942) DVDRip-AVC от New-Team

86 | 7

744.49 МБ

В этой теме нет новых непрочитанных сообщений. Сибиряки (1940) DVDRip-AVC от New-Team

75 | 5

1.46 ГБ

В этой теме нет новых непрочитанных сообщений. Моя любовь (1940) DVDRip от New-Team

45 | 58

1.09 ГБ




Вы не можете начинать темы
Вы не можете отвечать на сообщения
Вы не можете редактировать свои сообщения
Вы не можете удалять свои сообщения
Вы не можете добавлять вложения

Перейти:  
Для Мосгорсуда, Роскомнадзора и рекламодателей: mosgorsud-torrent[собачка]yandex.ru
 Вход
ppkBB3cker v.2 © 2008-2014 @ PPK
[ Time : 0.029s | 15 Queries | GZIP : Off ]

Торрент трекер RUTOR.IN, Не можете зайти на rutor.org? Какой новый адрес рутор? Какое зеркало рутор? Не работает rutor.org и зеркала? Тогда наш торрент специально для вас. Rutor.in неофициальное зеркало rutor. В случае если у Вас заблокирован rutor или вдруг Вы не можете на него зайти, то Вы без труда сможете скачать бесплатно и без рекламы последние новинки кино, игр, сериалов и прочего у нас, на Rutor.in. Не нужно использовать прокси, чтобы зайти на рутор, достаточно воспользоваться нашим ресурсом. Все новые фильмы, игры, сериалы, книги и музыка за 2013 и 2014 годы через торрент бесплатно. Скачивайте фильмы в хорошем качестве, игры для пк, xbox, playstation без регистрации. У нас вы найдете новые Зарубежные сериалы и Русские сериалы 2013, 2014, 2015 годов. Оставайтесь с нами, качайте любимые фильмы, игры, сериалы, книги и музыку.