img image001 image001 image001 image001 image001 image001 image001 image001 image001 image001 image001 image001 image001 image001 image001

Planets Sun Sun Sun
Статистика раздачи
Автор: Nickolas3434 | Размер: 7.59 ГБ | Добавлен: 20 янв 2015
Раздают: 143    Качают: 27
Скачать торрент
Скачать торрент
Описание торрента

СообщениеДобавлено: 20 янв 2015 

Информация о фильме
Название: Старый Новый год
Год выхода: 1980
Жанр: комедия
Режиссер: Наум Ардашников, Олег Ефремов
В ролях: Вячеслав Невинный, Александр Калягин, Ксения Минина, Георгий Бурков, Петр Щербаков, Ирина Мирошниченко, Анастасия Немоляева, Валентин Карманов, Виктор Петров, Валерия Дементьева
О фильме:
В недавно заселенном доме идет новогодняя гульба.
Две соседствующие семьи имеют, при всех различиях одно сходство: в обеих есть недовольный жизнью муж. Вскоре оба неудачника, хлопнув дверьми, покидают свои новые квартиры — чтобы вскоре найти успокоение в тесной мужской компании.

Страна: СССР
Студия: Гостелерадио, Мосфильм
Продолжительность: 133 мин. / 02:13
Перевод: не требуется
Бонусы: Фильмографии
Файл
Кодек: MPEG2
Качество: DVD9
Видео: PAL 4:3 (720x576@768x576) CBR 6480 Kbps, 25.000 fps
Аудио 1: Dolby AC3, 6 ch, 48.0 KHz, 448 Кbps
Аудио 2: Dolby AC3, 1 ch, 48.0 KHz, 224 Кbps
Субтитры: отсутствуют
General
Complete name : D:Starij.novij.god.1980.DVD-9VIDEO_TSVTS_05_1.VOB
Format : MPEG-PS
File size : 1 024 MiB
Duration : 19mn 37s
Overall bit rate : 7 297 Kbps
Video
ID : 224 (0xE0)
Format : MPEG Video
Format version : Version 2
Format profile : Main@Main
Format settings, BVOP : Yes
Format settings, Matrix : Custom
Format settings, GOP : M=3, N=15
Format settings, picture struc : Frame
Duration : 19mn 37s
Bit rate : 6 480 Kbps
Width : 720 pixels
Height : 576 pixels
Display aspect ratio : 4:3
Frame rate : 25.000 fps
Standard : PAL
Color space : YUV
Chroma subsampling : 4:2:0
Bit depth : 8 bits
Scan type : Interlaced
Compression mode : Lossy
Bits/(Pixel*Frame) : 0.625
Time code of first frame : 00:00:00:01
Time code source : Group of pictures header
Stream size : 909 MiB (89%)
Audio #1
ID : 189 (0xBD)-128 (0x80)
Format : AC-3
Format/Info : Audio Coding 3
Mode extension : CM (complete main)
Format settings, Endianness : Big
Muxing mode : DVD-Video
Duration : 19mn 36s
Bit rate mode : Constant
Bit rate : 448 Kbps
Channel(s) : 6 channels
Channel positions : Front: L C R, Side: L R, LFE
Sampling rate : 48.0 KHz
Bit depth : 16 bits
Compression mode : Lossy
Delay relative to video : 387ms
Stream size : 62.8 MiB (6%)
Audio #2
ID : 189 (0xBD)-129 (0x81)
Format : AC-3
Format/Info : Audio Coding 3
Mode extension : CM (complete main)
Format settings, Endianness : Big
Muxing mode : DVD-Video
Duration : 19mn 36s
Bit rate mode : Constant
Bit rate : 224 Kbps
Channel(s) : 1 channel
Channel positions : Front: C
Sampling rate : 48.0 KHz
Bit depth : 16 bits
Compression mode : Lossy
Delay relative to video : 389ms
Stream size : 31.4 MiB (3%)
Menu




   Похожие торренты   Торрент   Размер 
В этой теме нет новых непрочитанных сообщений. Тегеран-43 (1980) DVD9 | Полная реставрация

11 | 20

7.8 ГБ

В этой теме нет новых непрочитанных сообщений. Старый Новый год (1980) DVDRip | Реставрация

744 | 58

1.45 ГБ

В этой теме нет новых непрочитанных сообщений. Дамы приглашают кавалеров (1980) DVD5 | Реставрация

13 | 2

4.05 ГБ

В этой теме нет новых непрочитанных сообщений. Тегеран-43 (1980) DVDRip от ExKinoRay | Полная реставрация

264 | 33

2.03 ГБ

В этой теме нет новых непрочитанных сообщений. Дамы приглашают кавалеров (1980) DVDRip | Реставрация

2 | 5

1.3 ГБ

В этой теме нет новых непрочитанных сообщений. Карнавал (1981) DVD9 | Реставрация

180 | 8

6.96 ГБ

В этой теме нет новых непрочитанных сообщений. Гамлет (1964) DVD9 | Реставрация

156 | 11

6.51 ГБ




Вы не можете начинать темы
Вы не можете отвечать на сообщения
Вы не можете редактировать свои сообщения
Вы не можете удалять свои сообщения
Вы не можете добавлять вложения

Перейти:  
Для Мосгорсуда, Роскомнадзора и рекламодателей: mosgorsud-torrent[собачка]yandex.ru
 Вход
ppkBB3cker v.2 © 2008-2014 @ PPK
[ Time : 0.022s | 15 Queries | GZIP : Off ]

Торрент трекер RUTOR.IN, Не можете зайти на rutor.org? Какой новый адрес рутор? Какое зеркало рутор? Не работает rutor.org и зеркала? Тогда наш торрент специально для вас. Rutor.in неофициальное зеркало rutor. В случае если у Вас заблокирован rutor или вдруг Вы не можете на него зайти, то Вы без труда сможете скачать бесплатно и без рекламы последние новинки кино, игр, сериалов и прочего у нас, на Rutor.in. Не нужно использовать прокси, чтобы зайти на рутор, достаточно воспользоваться нашим ресурсом. Все новые фильмы, игры, сериалы, книги и музыка за 2013 и 2014 годы через торрент бесплатно. Скачивайте фильмы в хорошем качестве, игры для пк, xbox, playstation без регистрации. У нас вы найдете новые Зарубежные сериалы и Русские сериалы 2013, 2014, 2015 годов. Оставайтесь с нами, качайте любимые фильмы, игры, сериалы, книги и музыку.