img image001 image001 image001 image001 image001 image001 image001 image001 image001 image001 image001 image001 image001 image001 image001

Planets Sun Sun Sun
Статистика раздачи
Автор: Nickolas3434 | Размер: 1.45 ГБ | Добавлен: 20 янв 2015
Раздают: 121    Качают: 27
Скачать торрент
Скачать торрент
Описание торрента

СообщениеДобавлено: 20 янв 2015 

Страна: СССР
Производство: Мосфильм
Жанр: драма
Год выпуска: 1941
Продолжительность: 1:39:25
Перевод: Не требуется
Cубтитры: нет
Оригинальная аудиодорожка: русский
Режиссер: Михаил Ромм
В ролях:
Елена Кузьмина, Владимир Соловьев, Виктор Щеглов, Фаина Раневская, Аркадий Кисляков, Ада Войцик, Михаил Астангов, Михаил Болдуман, Ростислав Плятт, Николай Орлов...
Описание:
В кое-как выбившейся «в люди» — по крайней мере, так ей кажется — Розе Скороход парадоксально смешивались сострадание и жесточайшая беспощадность к тем, кто ниже ее по социальному статусу, всепоглощающая скупость и такая же безмерная любовь к сыну-неудачнику, ради которого она живет, трудится, совершает низости, понимая в глубине души всю бесполезность этих усилий. Горькую мелодию подхватывали и другие герои.
«Вечная невеста» пани Ванда, переживающая одно за другим крушение в любой попытке как-тоустроить свою жизнь, найти того, кто даст ей хотя бы как-то устроить свою жизнь, найти того, кто даст ей возможность более менее нормального существования. Причем она изначально знает, что обречена и единственное, что принесет ей покой — добровольный уход из жизни. Такой же нелепый, избитый жизнью и ее мнимый жених — пан Коморовский, исполненный жалкой спеси, за которой пытается скрыть все ту же нищету и убожество своих дней...





Источник: DVD5 R5
Качество видео: DVDRip
Формат видео: AVI
Виде: 688x512 (4:3), 25 fps, XviD ~ 1893 kbps avg, 0.215 bit/pixel
Аудио: 48 kHz, Dolby Digital AC3 2.0, 192 kbps
Раздача от:
Общее
Полное имя : Mechta.1941.DVDRip_[New-team]_by_AVP_Studio.avi
Формат : AVI
Формат/Информация : Audio Video Interleave
Размер файла : 1,45 Гбайт
Продолжительность : 1 ч. 39 м.
Общий поток : 2094 Кбит/сек
Программа кодирования : VirtualDubModRus 1.5.10.2 (build 2542/release)
Библиотека кодирования : VirtualDubMod build 2542/release
Видео
Идентификатор : 0
Формат : MPEG-4 Visual
Профиль формата : Advanced Simple@L5
Параметр BVOP формата : 1
Параметр QPel формата : Нет
Параметр GMC формата : Без точки перехода
Параметр матрицы формата : Выборочная
Идентификатор кодека : XVID
Идентификатор кодека/Подсказка : XviD
Продолжительность : 1 ч. 39 м.
Битрейт : 1893 Кбит/сек
Ширина : 688 пикселей
Высота : 512 пикселей
Соотношение сторон : 4:3
Частота кадров : 25,000 кадров/сек
Цветовое пространство : YUV
Субдискретизация насыщенности : 4:2:0
Битовая глубина : 8 бит
Тип развёртки : Прогрессивная
Метод сжатия : С потерями
Бит/(Пиксели*Кадры) : 0.215
Размер потока : 1,31 Гбайт (90%)
Библиотека кодирования : XviD 73
Аудио
Идентификатор : 1
Формат : AC-3
Формат/Информация : Audio Coding 3
Расширение режима : CM (complete main)
Параметр Endianness формата : Big
Идентификатор кодека : 2000
Продолжительность : 1 ч. 39 м.
Вид битрейта : Постоянный
Битрейт : 192 Кбит/сек
Каналы : 2 канала
Расположение каналов : Front: L R
Частота : 48,0 КГц
Битовая глубина : 16 бит
Метод сжатия : С потерями
Размер потока : 137 Мбайт (9%)
Выравнивание : Разделение по промежуткам
Продолжительность промежутка : 40 мс. (1,00 видеокадр)
Время предзагрузки промежутка : 500 мс





   Похожие торренты   Торрент   Размер 
В этой теме нет новых непрочитанных сообщений. Мечта (1941) DVDRip-AVC от New-Team

9 | 6

1.46 ГБ

В этой теме нет новых непрочитанных сообщений. Мечта (1941) DVDRip от New-Team

10 | 4

745.04 МБ

В этой теме нет новых непрочитанных сообщений. Боксёры (1941) DVDRip-AVC от New-Team

18 | 26

745.05 МБ

В этой теме нет новых непрочитанных сообщений. Романтики (1941) DVDRip от New-Team

4 | 6

744.41 МБ

В этой теме нет новых непрочитанных сообщений. Романтики (1941) DVDRip-AVC от New-Team

30 | 21

745.26 МБ

В этой теме нет новых непрочитанных сообщений. Боксёры (1941) DVDRip от New-Team

9 | 6

743.64 МБ

В этой теме нет новых непрочитанных сообщений. Богдан Хмельницкий (1941) DVDRip от New-Team

15 | 8

1.45 ГБ




Вы не можете начинать темы
Вы не можете отвечать на сообщения
Вы не можете редактировать свои сообщения
Вы не можете удалять свои сообщения
Вы не можете добавлять вложения

Перейти:  
Для Мосгорсуда, Роскомнадзора и рекламодателей: mosgorsud-torrent[собачка]yandex.ru
 Вход
ppkBB3cker v.2 © 2008-2014 @ PPK
[ Time : 0.524s | 15 Queries | GZIP : Off ]

Торрент трекер RUTOR.IN, Не можете зайти на rutor.org? Какой новый адрес рутор? Какое зеркало рутор? Не работает rutor.org и зеркала? Тогда наш торрент специально для вас. Rutor.in неофициальное зеркало rutor. В случае если у Вас заблокирован rutor или вдруг Вы не можете на него зайти, то Вы без труда сможете скачать бесплатно и без рекламы последние новинки кино, игр, сериалов и прочего у нас, на Rutor.in. Не нужно использовать прокси, чтобы зайти на рутор, достаточно воспользоваться нашим ресурсом. Все новые фильмы, игры, сериалы, книги и музыка за 2013 и 2014 годы через торрент бесплатно. Скачивайте фильмы в хорошем качестве, игры для пк, xbox, playstation без регистрации. У нас вы найдете новые Зарубежные сериалы и Русские сериалы 2013, 2014, 2015 годов. Оставайтесь с нами, качайте любимые фильмы, игры, сериалы, книги и музыку.