img image001 image001 image001 image001 image001 image001 image001 image001 image001 image001 image001 image001 image001 image001 image001

Planets Sun Sun Sun
Статистика раздачи
Автор: Nickolas3434 | Размер: 745.86 МБ | Добавлен: 22 янв 2015
Раздают: 225    Качают: 7
Скачать торрент
Скачать торрент
Описание торрента

СообщениеДобавлено: 22 янв 2015 

Информация о фильме
Название: Ой, мороз, мороз!
Год выхода: 2005
Жанр: Комедия
Режиссёр: Николай Щербаков
В ролях: Владимир Епифанцев, Анастасия Задорожная, Роман Мадянов, Виктор Проскурин, Валерий Гаркалин, Борис Клюев, Раиса Рязанова, Ирина Шипова, Галина Данилова, Алексей Зуев, Павел Лысенок, Андрей Перов, Спартак Сумченко, Николай Мачульский, Дмитрий Гольдман, Илья Соколовский, Владимир Павленко, Оксана Лагутина, Ольга Хохлова, Армен Филиппов
О фильме: Иногда, чтобы исправить свою судьбу, полезно сыграть роль другого человека. Жизнь героя этой взрослой сказки действительно зашла в тупик. Он бывший офицер спецназа, отбывающий срок по ложному обвинению. Уже несколько лет подряд в канун Нового года он бежит из колонии, чтобы отомстить. Однако у судьбы свои планы и в этот раз все будет совсем иначе. Роль Деда Мороза, которую по воле случая придется сыграть герою, позволит ему посмотреть на себя со стороны, научит дарить радость другим, и вернет удачу и счастье в его собственную жизнь.

Выпущено: Россия, Продюсерский центр "Утёс"
Продолжительность: 01:35:16
Перевод: Не требуется
Файл
Качество: DVDRip [Исходник: DVD-5]
Видео: XviD, 640x384 (1.667), 959 Кбит/с, 25 кадр/с
Аудио: Русский, MP3, 48000 Гц, 128 Кбит/с, 2 канала (Стерео)

General
Complete name : Oj.moroz.moroz.2005.745MB.avi
Format : AVI
Format/Info : Audio Video Interleave
File size : 746 MiB
Duration : 1h 35mn
Overall bit rate : 1 096 Kbps
Writing application : VirtualDubMod 1.5.10.3 (build 2550/release)
Writing library : VirtualDubMod build 2550/release
Copyright : rip by ivandubskoj
Video
ID : 0
Format : MPEG-4 Visual
Format profile : Advanced Simple@L5
Format settings, BVOP : 2
Format settings, QPel : No
Format settings, GMC : No warppoints
Format settings, Matrix : Custom
Codec ID : XVID
Codec ID/Hint : XviD
Duration : 1h 35mn
Bit rate : 959 Kbps
Width : 640 pixels
Height : 384 pixels
Display aspect ratio : 1.667
Frame rate : 25.000 fps
Color space : YUV
Chroma subsampling : 4:2:0
Bit depth : 8 bits
Scan type : Progressive
Compression mode : Lossy
Bits/(Pixel*Frame) : 0.156
Stream size : 652 MiB (87%)
Writing library : XviD 73
Audio
ID : 1
Format : MPEG Audio
Format version : Version 1
Format profile : Layer 3
Codec ID : 55
Codec ID/Hint : MP3
Duration : 1h 35mn
Bit rate mode : Constant
Bit rate : 128 Kbps
Channel(s) : 2 channels
Sampling rate : 48.0 KHz
Compression mode : Lossy
Stream size : 87.1 MiB (12%)
Alignment : Aligned on interleaves
Interleave, duration : 40 ms (1.00 video frame)
Interleave, preload duration : 504 ms
Writing library : LAME3.99r
Encoding settings : -m s -V 4 -q 0 -lowpass 17 -b 128


Автор рипа - ivandubskoj



   Похожие торренты   Торрент   Размер 
В этой теме нет новых непрочитанных сообщений. Ой, мороз, мороз! (2005) DVDRip от New-Team

462 | 28

1.46 ГБ

В этой теме нет новых непрочитанных сообщений. Ой, мороз, мороз! (2005) DVDRip от KinoZalSat

28 | 4

1.37 ГБ

В этой теме нет новых непрочитанных сообщений. Откройте, Дед Мороз! (2007) DVDRip от ivandubskoj | Лицензия

94 | 25

746.2 МБ

В этой теме нет новых непрочитанных сообщений. Мужской хор "Пересвет". Русские застольные песни - Ой, мороз, мороз! (2002) MP3

65 | 5

111.04 МБ

В этой теме нет новых непрочитанных сообщений. Маша и Медведь: Это был Дед Мороз! (2011) DVD9 | Лицензия

15 | 2

7.73 ГБ

В этой теме нет новых непрочитанных сообщений. Мороз по коже (2007) DVDRip

20 | 24

1.36 ГБ

В этой теме нет новых непрочитанных сообщений. Дед Мороз и лето (1969) DVDRip

1015 | 15

282.54 МБ




Вы не можете начинать темы
Вы не можете отвечать на сообщения
Вы не можете редактировать свои сообщения
Вы не можете удалять свои сообщения
Вы не можете добавлять вложения

Перейти:  
Для Мосгорсуда, Роскомнадзора и рекламодателей: mosgorsud-torrent[собачка]yandex.ru
 Вход
ppkBB3cker v.2 © 2008-2014 @ PPK
[ Time : 0.022s | 14 Queries | GZIP : On ]

Торрент трекер RUTOR.IN, Не можете зайти на rutor.org? Какой новый адрес рутор? Какое зеркало рутор? Не работает rutor.org и зеркала? Тогда наш торрент специально для вас. Rutor.in неофициальное зеркало rutor. В случае если у Вас заблокирован rutor или вдруг Вы не можете на него зайти, то Вы без труда сможете скачать бесплатно и без рекламы последние новинки кино, игр, сериалов и прочего у нас, на Rutor.in. Не нужно использовать прокси, чтобы зайти на рутор, достаточно воспользоваться нашим ресурсом. Все новые фильмы, игры, сериалы, книги и музыка за 2013 и 2014 годы через торрент бесплатно. Скачивайте фильмы в хорошем качестве, игры для пк, xbox, playstation без регистрации. У нас вы найдете новые Зарубежные сериалы и Русские сериалы 2013, 2014, 2015 годов. Оставайтесь с нами, качайте любимые фильмы, игры, сериалы, книги и музыку.