img image001 image001 image001 image001 image001 image001 image001 image001 image001 image001 image001 image001 image001 image001 image001

Planets Sun Sun Sun
Статистика раздачи
Автор: Nickolas3434 | Размер: 745.42 МБ | Добавлен: 21 янв 2015
Раздают: 214    Качают: 20
Скачать торрент
Скачать торрент
Описание торрента

СообщениеДобавлено: 21 янв 2015 

Информация о фильме
Название: Спешите любить
Год выхода: 2014
Жанр: Мелодрама
Режиссёр: Максим Демченко
В ролях: Павел Трубинер, Светлана Иванова, Юлия Мельникова, Кирилл Плетнёв, Владимир Стержаков, Юлия Стожарова
О фильме: Летчик Антон отстранен от полетов: из-за развода с женой у него началась неврастения. Жена-стюардесса не хочет оставлять с ним дочку Киру, даже когда сама в рейсе, поэтому Антон забирает ребенка тайком и переезжает в коммуналку. Соседнюю комнату снимает Ася, привыкшая к роскоши, но бросившая богатого мужа, который ей изменил. Атмосфера в квартире напряженная: ни Антон, ни Ася не привыкли к столь тесному соседству. Поначалу они даже воюют и делают друг другу мелкие пакости, но путь от ненависти до любви будет недолгим. И вот уже Ася заботится о маленькой Кире, как о родной, а влюбленный Антон забывает про все заботы. Жили бы они счастливо, если бы раскаявшийся супруг не появился вновь на горизонте Аси, и если бы жена Антона не отобрала у него дочь. За любовь нужно бороться, и героям предстоят тяжелые бои.

Выпущено: Россия, Телефильм продакшн
Продолжительность: 01:27:58
Перевод: Не требуется
Файл
Качество: WEB-DLRip
Видео: XviD, 1047 Кбит/с, 656x368 (16:9), 25 кадр/с
Аудио: Русский, MP3, 48000 Гц, 128 Кбит/с, 2 канала (Стерео)

General
Complete name : Speshite.lybit'.2014.WEB-DLRip.745MB.avi
Format : AVI
Format/Info : Audio Video Interleave
File size : 745 MiB
Duration : 1h 27mn
Overall bit rate : 1 185 Kbps
Writing application : VirtualDubMod 1.5.10.3 (build 2550/release)
Writing library : VirtualDubMod build 2550/release
Copyright : rip by ivandubskoj
Video
ID : 0
Format : MPEG-4 Visual
Format profile : Advanced Simple@L5
Format settings, BVOP : 2
Format settings, QPel : No
Format settings, GMC : No warppoints
Format settings, Matrix : Custom
Codec ID : XVID
Codec ID/Hint : XviD
Duration : 1h 27mn
Bit rate : 1 047 Kbps
Width : 656 pixels
Height : 368 pixels
Display aspect ratio : 16:9
Frame rate : 25.000 fps
Color space : YUV
Chroma subsampling : 4:2:0
Bit depth : 8 bits
Scan type : Progressive
Compression mode : Lossy
Bits/(Pixel*Frame) : 0.173
Stream size : 659 MiB (88%)
Writing library : XviD 73
Audio
ID : 1
Format : MPEG Audio
Format version : Version 1
Format profile : Layer 3
Codec ID : 55
Codec ID/Hint : MP3
Duration : 1h 27mn
Bit rate mode : Constant
Bit rate : 128 Kbps
Channel(s) : 2 channels
Sampling rate : 48.0 KHz
Compression mode : Lossy
Stream size : 80.5 MiB (11%)
Alignment : Aligned on interleaves
Interleave, duration : 40 ms (1.00 video frame)
Interleave, preload duration : 504 ms
Writing library : LAME3.99r
Encoding settings : -m s -V 4 -q 0 -lowpass 17 -b 128



Автор рипа - ivandubskoj



   Похожие торренты   Торрент   Размер 
В этой теме нет новых непрочитанных сообщений. Спешите любить (2014) WEB-DLRip

2466 | 124

1.37 ГБ

В этой теме нет новых непрочитанных сообщений. Спешите любить (2014) WEB-DLRip от ImperiaFilm | КПК

0 | 0

300.9 МБ

В этой теме нет новых непрочитанных сообщений. Спешите любить (2014) WEB-DLRip-AVC от Files-x

0 | 0

1.37 ГБ

В этой теме нет новых непрочитанных сообщений. Спешите любить (2014) WEB-DLRip 720p от MegaPeer

5 | 0

1.7 ГБ

В этой теме нет новых непрочитанных сообщений. Спешите любить (2014) WEB-DL 1080p | 50 fps

103 | 13

2.58 ГБ

В этой теме нет новых непрочитанных сообщений. Спешите любить (2014) SATRip by simkanetua

1056 | 40

1.37 ГБ

В этой теме нет новых непрочитанных сообщений. Спешите любить (2014) WEB-DL 1080p от Files-x

37 | 0

2.13 ГБ




Вы не можете начинать темы
Вы не можете отвечать на сообщения
Вы не можете редактировать свои сообщения
Вы не можете удалять свои сообщения
Вы не можете добавлять вложения

Перейти:  
Для Мосгорсуда, Роскомнадзора и рекламодателей: mosgorsud-torrent[собачка]yandex.ru
 Вход
ppkBB3cker v.2 © 2008-2014 @ PPK
[ Time : 0.041s | 15 Queries | GZIP : Off ]

cron