img image001 image001 image001 image001 image001 image001 image001 image001 image001 image001 image001 image001 image001 image001 image001

Planets Sun Sun Sun
Статистика раздачи
Автор: Nickolas3434 | Размер: 746.07 МБ | Добавлен: 22 янв 2015
Раздают: 83    Качают: 7
Скачать торрент
Скачать торрент
Описание торрента

СообщениеДобавлено: 22 янв 2015 

Название: Мама напрокат
Жанр: Комедия, мелодрама
Год выпуска: 2010
Выпущено: Россия, "StarMedia"
Продолжительность: 01:28:21
Режиссёр: Николай Михайлов
В ролях: Елена Панова, Илья Шакунов, Поля Полякова, Лариса Кадочникова, Майя Кузьмишина
Описание: Маленькая Соня живет с отцом и бабушкой. Мать давно бросила семью, уехав в Америку в поисках другой судьбы. Несмотря на то, что отец и бабушка очень любят Соню, девочка все-таки страстно мечтает о матери, чем очень огорчает отца, не верящего в порядочность женщин после поступка бывшей жены. Но он решает доказать и Соне, что мачеха — это не лучший выход из положения.
На трассе, по которой он часто проезжает работая дальнобойщиком, в третьеразрядном кафе он уговаривает (за хорошую плату) буфетчицу Тамару — грубую, давно махнувшую на себя рукой, женщину — пожить некоторое время в его доме в качестве предполагаемой мачехи, объяснив ей, что всеми силами она должна показать Соне, что страшнее мачехи ничего нет.
Бабушка Сони против затеи сына, но вынуждена согласиться. Сделав дело, он со спокойным сердцем уходит в очередной рейс, в надежде, что когда он вернется, проблема отпадет сама собой. Но Соня, еще верящая в сказки, решает, что Тамару можно «расколдовать» и та превратится в добрую и красивую маму…

Качество видео: HDTVRip [Исходник: HDTV (1080i)]
Формат видео: AVI
Видео: XviD, 656x368 (16:9), 1043 Кбит/с, 25 кадр/с
Аудио: Русский, MP3 48000 Гц, 128 Кбит/с, 2 канала (Стерео)

General
Complete name : Mama.naprokat.2010.HDTVRip.745MB.avi
Format : AVI
Format/Info : Audio Video Interleave
File size : 746 MiB
Duration : 1h 28mn
Overall bit rate : 1 181 Kbps
Writing application : VirtualDubMod 1.5.10.3 (build 2550/release)
Writing library : VirtualDubMod build 2550/release
Copyright : rip by ivandubskoj
Video
ID : 0
Format : MPEG-4 Visual
Format profile : Advanced Simple@L5
Format settings, BVOP : 2
Format settings, QPel : No
Format settings, GMC : No warppoints
Format settings, Matrix : Custom
Codec ID : XVID
Codec ID/Hint : XviD
Duration : 1h 28mn
Bit rate : 1 043 Kbps
Width : 656 pixels
Height : 368 pixels
Display aspect ratio : 16:9
Frame rate : 25.000 fps
Color space : YUV
Chroma subsampling : 4:2:0
Bit depth : 8 bits
Scan type : Progressive
Compression mode : Lossy
Bits/(Pixel*Frame) : 0.173
Stream size : 659 MiB (88%)
Writing library : XviD 73
Audio
ID : 1
Format : MPEG Audio
Format version : Version 1
Format profile : Layer 3
Codec ID : 55
Codec ID/Hint : MP3
Duration : 1h 28mn
Bit rate mode : Constant
Bit rate : 128 Kbps
Channel(s) : 2 channels
Sampling rate : 48.0 KHz
Compression mode : Lossy
Stream size : 80.9 MiB (11%)
Alignment : Aligned on interleaves
Interleave, duration : 40 ms (1.00 video frame)
Interleave, preload duration : 504 ms
Writing library : LAME3.99r
Encoding settings : -m s -V 4 -q 0 -lowpass 17 -b 128



Автор рипа - ivandubskoj



   Похожие торренты   Торрент   Размер 
В этой теме нет новых непрочитанных сообщений. Мама напрокат (2010) HDTVRip от ivandubskoj

253 | 16

1.46 ГБ

В этой теме нет новых непрочитанных сообщений. Мама напрокат (2010) SATRip

42 | 7

739.14 МБ

В этой теме нет новых непрочитанных сообщений. Мама напрокат (2010) WEB-DLRip от Generalfilm

21 | 4

1.37 ГБ

В этой теме нет новых непрочитанных сообщений. Мама напрокат (2010) SATRip от КинозалSat

30 | 6

1.37 ГБ

В этой теме нет новых непрочитанных сообщений. Мама напрокат (2010) WEB-DL 720p от Files-x

18 | 2

1.27 ГБ

В этой теме нет новых непрочитанных сообщений. Папа напрокат (2008) HDTVRip-AVC от MediaClub

141 | 20

1.46 ГБ

В этой теме нет новых непрочитанных сообщений. Мама-невидимка (Невидимая мама) / Invisible Mom (1996) DVDRip от PlanetaUA

285 | 9

1.46 ГБ




Вы не можете начинать темы
Вы не можете отвечать на сообщения
Вы не можете редактировать свои сообщения
Вы не можете удалять свои сообщения
Вы не можете добавлять вложения

Перейти:  
Для Мосгорсуда, Роскомнадзора и рекламодателей: mosgorsud-torrent[собачка]yandex.ru
 Вход
ppkBB3cker v.2 © 2008-2014 @ PPK
[ Time : 0.524s | 15 Queries | GZIP : Off ]

Торрент трекер RUTOR.IN, Не можете зайти на rutor.org? Какой новый адрес рутор? Какое зеркало рутор? Не работает rutor.org и зеркала? Тогда наш торрент специально для вас. Rutor.in неофициальное зеркало rutor. В случае если у Вас заблокирован rutor или вдруг Вы не можете на него зайти, то Вы без труда сможете скачать бесплатно и без рекламы последние новинки кино, игр, сериалов и прочего у нас, на Rutor.in. Не нужно использовать прокси, чтобы зайти на рутор, достаточно воспользоваться нашим ресурсом. Все новые фильмы, игры, сериалы, книги и музыка за 2013 и 2014 годы через торрент бесплатно. Скачивайте фильмы в хорошем качестве, игры для пк, xbox, playstation без регистрации. У нас вы найдете новые Зарубежные сериалы и Русские сериалы 2013, 2014, 2015 годов. Оставайтесь с нами, качайте любимые фильмы, игры, сериалы, книги и музыку.