img image001 image001 image001 image001 image001 image001 image001 image001 image001 image001 image001 image001 image001 image001 image001

Planets Sun Sun Sun
Статистика раздачи
Автор: Nickolas3434 | Размер: 1.46 ГБ | Добавлен: 21 янв 2015
Раздают: 253    Качают: 16
Скачать торрент
Скачать торрент
Описание торрента

СообщениеДобавлено: 21 янв 2015 

Название: Мама напрокат
Жанр: Комедия, мелодрама
Выпущено: Россия, "StarMedia"
Год выпуска: 2010
Продолжительность: 01:28:21
Режиссёр: Николай Михайлов
В ролях: Елена Панова, Илья Шакунов, Поля Полякова, Лариса Кадочникова, Майя Кузьмишина
Описание: Маленькая Соня живет с отцом и бабушкой. Мать давно бросила семью, уехав в Америку в поисках другой судьбы. Несмотря на то, что отец и бабушка очень любят Соню, девочка все-таки страстно мечтает о матери, чем очень огорчает отца, не верящего в порядочность женщин после поступка бывшей жены. Но он решает доказать и Соне, что мачеха — это не лучший выход из положения.
На трассе, по которой он часто проезжает работая дальнобойщиком, в третьеразрядном кафе он уговаривает (за хорошую плату) буфетчицу Тамару — грубую, давно махнувшую на себя рукой, женщину — пожить некоторое время в его доме в качестве предполагаемой мачехи, объяснив ей, что всеми силами она должна показать Соне, что страшнее мачехи ничего нет.
Бабушка Сони против затеи сына, но вынуждена согласиться. Сделав дело, он со спокойным сердцем уходит в очередной рейс, в надежде, что когда он вернется, проблема отпадет сама собой. Но Соня, еще верящая в сказки, решает, что Тамару можно «расколдовать» и та превратится в добрую и красивую маму…

Качество видео: HDTVRip [Исходник: HDTV (1080i)]
Формат видео: AVI
Видео: XviD, 704x400 (16:9), 2168 Кбит/с, 25 кадр/с
Аудио: Русский, Dolby AC3, 48000 Гц, 192 Кбит/с, 2 канала (Стерео)

Код:
General
Complete name                    : Mama.naprokat.2010.HDTVRip.avi
Format                           : AVI
Format/Info                      : Audio Video Interleave
File size                        : 1.46 GiB
Duration                         : 1h 28mn
Overall bit rate                 : 2 370 Kbps
Writing application              : VirtualDubMod 1.5.10.3 (build 2550/release)
Writing library                  : VirtualDubMod build 2550/release
Copyright                        : rip by ivandubskoj
Video
ID                               : 0
Format                           : MPEG-4 Visual
Format profile                   : Advanced Simple@L5
Format settings, BVOP            : 1
Format settings, QPel            : No
Format settings, GMC             : No warppoints
Format settings, Matrix          : Custom
Codec ID                         : XVID
Codec ID/Hint                    : XviD
Duration                         : 1h 28mn
Bit rate                         : 2 168 Kbps
Width                            : 704 pixels
Height                           : 400 pixels
Display aspect ratio             : 16:9
Frame rate                       : 25.000 fps
Color space                      : YUV
Chroma subsampling               : 4:2:0
Bit depth                        : 8 bits
Scan type                        : Progressive
Compression mode                 : Lossy
Bits/(Pixel*Frame)               : 0.308
Stream size                      : 1.34 GiB (91%)
Writing library                  : XviD 73
Audio
ID                               : 1
Format                           : AC-3
Format/Info                      : Audio Coding 3
Mode extension                   : CM (complete main)
Codec ID                         : 2000
Duration                         : 1h 28mn
Bit rate mode                    : Constant
Bit rate                         : 192 Kbps
Channel(s)                       : 2 channels
Channel positions                : Front: L R
Sampling rate                    : 48.0 KHz
Bit depth                        : 16 bits
Compression mode                 : Lossy
Stream size                      : 121 MiB (8%)
Alignment                        : Split accross interleaves
Interleave, duration             : 40 ms (1.00 video frame)
Interleave, preload duration     : 500 ms




Автор рипа - ivandubskoj



   Похожие торренты   Торрент   Размер 
В этой теме нет новых непрочитанных сообщений. Мама напрокат (2010) HDTVRip от ivandubskoj

83 | 7

746.07 МБ

В этой теме нет новых непрочитанных сообщений. Мама напрокат (2010) SATRip

42 | 7

739.14 МБ

В этой теме нет новых непрочитанных сообщений. Мама напрокат (2010) SATRip от КинозалSat

30 | 6

1.37 ГБ

В этой теме нет новых непрочитанных сообщений. Мама напрокат (2010) WEB-DL 720p от Files-x

18 | 2

1.27 ГБ

В этой теме нет новых непрочитанных сообщений. Мама напрокат (2010) WEB-DLRip от Generalfilm

21 | 4

1.37 ГБ

В этой теме нет новых непрочитанных сообщений. Мама-невидимка (Невидимая мама) / Invisible Mom (1996) DVDRip от PlanetaUA

285 | 9

1.46 ГБ

В этой теме нет новых непрочитанных сообщений. Варчун и Карандаш - Мама не пей, Мама это ЯД! (2012) FLAC

5 | 1

298.98 МБ




Вы не можете начинать темы
Вы не можете отвечать на сообщения
Вы не можете редактировать свои сообщения
Вы не можете удалять свои сообщения
Вы не можете добавлять вложения

Перейти:  
Для Мосгорсуда, Роскомнадзора и рекламодателей: mosgorsud-torrent[собачка]yandex.ru
 Вход
ppkBB3cker v.2 © 2008-2014 @ PPK
[ Time : 0.040s | 17 Queries | GZIP : Off ]

cron