img image001 image001 image001 image001 image001 image001 image001 image001 image001 image001 image001 image001 image001 image001 image001

Planets Sun Sun Sun
Статистика раздачи
Автор: Nickolas3434 | Размер: 1.46 ГБ | Добавлен: 23 янв 2015
Раздают: 17    Качают: 24
Скачать торрент
Скачать торрент
Описание торрента

СообщениеДобавлено: 23 янв 2015 

Страна: СССР
Производство: Мосфильм
Жанр: мелодрама, комедия
Год выпуска: 1941
Продолжительность: 01:29:32
Перевод: Не требуется
Cубтитры: нет
Оригинальная аудиодорожка: русский
Режиссер: Константин Юдин
В ролях:
Валентина Серова, Евгений Самойлов, Людмила Целиковская, Павел Шпрингфельд, Ирина Мурзаева, Лиза Дмитриевская, Андрей Тутышкин, Александр Антонов...
Описание:
В подмосковном дачном поселке расквартирован полк танкистов. Сюжет строится вокруг двух сестер, абсолютно разных, но одинаково влюбленных. Одна — серьезный математик, другая — легкомысленная стрекоза. В центре внимания девушек бравый военный. Жизненные перипетии, смешные и сложные ситуации, интриги, слезы, радость, но все строится вокруг одного — любви...





Источник: DVD9 R5
Качество видео: DVDRip
Формат видео: AVI
Виде: 704x512 (1,375:1), 25 fps, XviD ~ 2126 kbps avg, 0.236 bit/pixel
Аудио: 48 kHz, Dolby Digital AC3 2.0, 192 kbps
Раздача от:
Общее
Полное имя : Serdca.chetyreh.1941.SATRip_[New-team]_by_AVP_Studio.avi
Формат : AVI
Формат/Информация : Audio Video Interleave
Размер файла : 1,46 Гбайт
Продолжительность : 1 ч. 29 м.
Общий поток : 2328 Кбит/сек
Программа кодирования : VirtualDubModRus 1.5.10.2 (build 2542/release)
Библиотека кодирования : VirtualDubMod build 2542/release
Видео
Идентификатор : 0
Формат : MPEG-4 Visual
Профиль формата : Advanced Simple@L5
Параметр BVOP формата : 1
Параметр QPel формата : Нет
Параметр GMC формата : Без точки перехода
Параметр матрицы формата : Выборочная
Идентификатор кодека : XVID
Идентификатор кодека/Подсказка : XviD
Продолжительность : 1 ч. 29 м.
Битрейт : 2126 Кбит/сек
Ширина : 704 пикселя
Высота : 512 пикселей
Соотношение сторон : 1,375
Частота кадров : 25,000 кадров/сек
Цветовое пространство : YUV
Субдискретизация насыщенности : 4:2:0
Битовая глубина : 8 бит
Тип развёртки : Прогрессивная
Метод сжатия : С потерями
Бит/(Пиксели*Кадры) : 0.236
Размер потока : 1,33 Гбайт (91%)
Библиотека кодирования : XviD 73
Аудио
Идентификатор : 1
Формат : MPEG Audio
Версия формата : Version 1
Профиль формата : Layer 2
Идентификатор кодека : 50
Продолжительность : 1 ч. 29 м.
Вид битрейта : Постоянный
Битрейт : 192 Кбит/сек
Каналы : 2 канала
Частота : 48,0 КГц
Метод сжатия : С потерями
Размер потока : 123 Мбайт (8%)
Выравнивание : Соединение по промежуткам
Продолжительность промежутка : 40 мс. (1,00 видеокадр)
Время предзагрузки промежутка : 504 мс





   Похожие торренты   Торрент   Размер 
В этой теме нет новых непрочитанных сообщений. Сердца четырех (1941) SATRip-AVC от New-Team

126 | 14

1.46 ГБ

В этой теме нет новых непрочитанных сообщений. Сердца четырех (1941) SATRip от New-Team

5 | 16

745.15 МБ

В этой теме нет новых непрочитанных сообщений. Сердца четырех (1941) DVDRip

290 | 55

1.37 ГБ

В этой теме нет новых непрочитанных сообщений. Сердца четырёх (1941) DVDRip-AVC Hi10P

48 | 13

3.4 ГБ

В этой теме нет новых непрочитанных сообщений. Сердца четырех (1944) DVDRip

68 | 10

744.77 МБ

В этой теме нет новых непрочитанных сообщений. Маскарад (1941) SATRip-AVC от New-Team

48 | 9

1.45 ГБ

В этой теме нет новых непрочитанных сообщений. Сабухи (1941) SATRip от New-Team

3 | 5

1.46 ГБ




Вы не можете начинать темы
Вы не можете отвечать на сообщения
Вы не можете редактировать свои сообщения
Вы не можете удалять свои сообщения
Вы не можете добавлять вложения

Перейти:  
Для Мосгорсуда, Роскомнадзора и рекламодателей: mosgorsud-torrent[собачка]yandex.ru
 Вход
ppkBB3cker v.2 © 2008-2014 @ PPK
[ Time : 0.019s | 16 Queries | GZIP : Off ]

Торрент трекер RUTOR.IN, Не можете зайти на rutor.org? Какой новый адрес рутор? Какое зеркало рутор? Не работает rutor.org и зеркала? Тогда наш торрент специально для вас. Rutor.in неофициальное зеркало rutor. В случае если у Вас заблокирован rutor или вдруг Вы не можете на него зайти, то Вы без труда сможете скачать бесплатно и без рекламы последние новинки кино, игр, сериалов и прочего у нас, на Rutor.in. Не нужно использовать прокси, чтобы зайти на рутор, достаточно воспользоваться нашим ресурсом. Все новые фильмы, игры, сериалы, книги и музыка за 2013 и 2014 годы через торрент бесплатно. Скачивайте фильмы в хорошем качестве, игры для пк, xbox, playstation без регистрации. У нас вы найдете новые Зарубежные сериалы и Русские сериалы 2013, 2014, 2015 годов. Оставайтесь с нами, качайте любимые фильмы, игры, сериалы, книги и музыку.
cron