img image001 image001 image001 image001 image001 image001 image001 image001 image001 image001 image001 image001 image001 image001 image001

Planets Sun Sun Sun
Статистика раздачи
Автор: Nickolas3434 | Размер: 746.61 МБ | Добавлен: 26 янв 2015
Раздают: 510    Качают: 21
Скачать торрент
Скачать торрент
Описание торрента

СообщениеДобавлено: 26 янв 2015 

Информация о фильме
Название: Храни её, любовь
Год выхода: 2014
Жанр: Мелодрама, криминал
Режиссёр: Сергей Винокуров
В ролях: Анна Арефьева, Евгений Добряков, Анна Миклош, Юлия Кудояр, Юрий Чулков
О фильме: Принимая решение на полчаса подменить сестру Катю, бухгалтера благотворительного фонда, Зоя не догадывается, что очень скоро ее жизни будет угрожать реальная опасность: грабители нацелились на деньги фонда. Девушку спасает человек по имени Илья. Сам он серьезно ранен. А ведь пуля предназначалась не ему. Зоя хочет теперь только одного: чтобы молодой человек поправился, но получает сообщение, что его больше нет. Однако оказывается, что Илья жив и, конечно, ищет Зою...

Выпущено: Кинокомпания "Паламеда продакшн", Продюсерский центр "Фабула"
Продолжительность: 01:31:09
Перевод: Не требуется
Файл
Качество: HDTVRip [Исходник: HDTV (1080i)]
Видео: XviD, 656x368 (16:9), 1012 Кбит/с, 25 кадр/с
Аудио: Русский, Dolby AC3, 48000 Гц, 192 Кбит/с, 2 канала (Стерео)

General
Complete name : Hrani.ee.lyubov'.2014.HDTVRip.745MB.avi
Format : AVI
Format/Info : Audio Video Interleave
File size : 747 MiB
Duration : 1h 30mn
Overall bit rate : 1 149 Kbps
Writing application : VirtualDubMod 1.5.10.3 (build 2550/release)
Writing library : VirtualDubMod build 2550/release
Copyright : rip by ivandubskoj
Video
ID : 0
Format : MPEG-4 Visual
Format profile : Advanced Simple@L5
Format settings, BVOP : 2
Format settings, QPel : No
Format settings, GMC : No warppoints
Format settings, Matrix : Custom
Codec ID : XVID
Codec ID/Hint : XviD
Duration : 1h 30mn
Bit rate : 1 012 Kbps
Width : 656 pixels
Height : 368 pixels
Display aspect ratio : 16:9
Frame rate : 25.000 fps
Color space : YUV
Chroma subsampling : 4:2:0
Bit depth : 8 bits
Scan type : Progressive
Compression mode : Lossy
Bits/(Pixel*Frame) : 0.168
Stream size : 657 MiB (88%)
Writing library : XviD 73
Audio
ID : 1
Format : MPEG Audio
Format version : Version 1
Format profile : Layer 3
Codec ID : 55
Codec ID/Hint : MP3
Duration : 1h 30mn
Bit rate mode : Constant
Bit rate : 128 Kbps
Channel(s) : 2 channels
Sampling rate : 48.0 KHz
Compression mode : Lossy
Stream size : 83.2 MiB (11%)
Alignment : Aligned on interleaves
Interleave, duration : 40 ms (1.00 video frame)
Interleave, preload duration : 504 ms
Writing library : LAME3.99r
Encoding settings : -m s -V 4 -q 0 -lowpass 17 -b 128


Автор рипа - ivandubskoj



   Похожие торренты   Торрент   Размер 
В этой теме нет новых непрочитанных сообщений. Храни её, любовь (2014) HDTVRip от ivandubskoj

1691 | 126

1.46 ГБ

В этой теме нет новых непрочитанных сообщений. Храни её, любовь (2014) HDTVRip 720p от MediaClub

486 | 56

2.43 ГБ

В этой теме нет новых непрочитанных сообщений. Храни её, любовь (2014) HDTV 1080i от MediaClub

141 | 13

5.48 ГБ

В этой теме нет новых непрочитанных сообщений. Полцарства за любовь (2014) HDTVRip от ivandubskoj

1315 | 50

1.46 ГБ

В этой теме нет новых непрочитанных сообщений. Любовь и Роман (2014) HDTVRip от ivandubskoj

269 | 22

745.7 МБ

В этой теме нет новых непрочитанных сообщений. Полцарства за любовь (2014) HDTVRip от ivandubskoj

1159 | 71

745.66 МБ

В этой теме нет новых непрочитанных сообщений. Настоящая любовь (2012) HDTVRip от ivandubskoj

180 | 25

1.46 ГБ




Вы не можете начинать темы
Вы не можете отвечать на сообщения
Вы не можете редактировать свои сообщения
Вы не можете удалять свои сообщения
Вы не можете добавлять вложения

Перейти:  
Для Мосгорсуда, Роскомнадзора и рекламодателей: mosgorsud-torrent[собачка]yandex.ru
 Вход
ppkBB3cker v.2 © 2008-2014 @ PPK
[ Time : 0.051s | 16 Queries | GZIP : On ]

Торрент трекер RUTOR.IN, Не можете зайти на rutor.org? Какой новый адрес рутор? Какое зеркало рутор? Не работает rutor.org и зеркала? Тогда наш торрент специально для вас. Rutor.in неофициальное зеркало rutor. В случае если у Вас заблокирован rutor или вдруг Вы не можете на него зайти, то Вы без труда сможете скачать бесплатно и без рекламы последние новинки кино, игр, сериалов и прочего у нас, на Rutor.in. Не нужно использовать прокси, чтобы зайти на рутор, достаточно воспользоваться нашим ресурсом. Все новые фильмы, игры, сериалы, книги и музыка за 2013 и 2014 годы через торрент бесплатно. Скачивайте фильмы в хорошем качестве, игры для пк, xbox, playstation без регистрации. У нас вы найдете новые Зарубежные сериалы и Русские сериалы 2013, 2014, 2015 годов. Оставайтесь с нами, качайте любимые фильмы, игры, сериалы, книги и музыку.