img image001 image001 image001 image001 image001 image001 image001 image001 image001 image001 image001 image001 image001 image001 image001

Planets Sun Sun Sun
Статистика раздачи
Автор: Nickolas3434 | Размер: 766.21 МБ | Добавлен: 28 янв 2015
Раздают: 2    Качают: 15
Скачать торрент
Скачать торрент
Описание торрента

СообщениеДобавлено: 28 янв 2015 

Страна: СССР
Производство: Ленфильм
Жанр: мюзикл, комедия
Год выпуска: 1941
Продолжительность: 01:14:45
Перевод: Не требуется
Cубтитры: нет
Оригинальная аудиодорожка: русский
Режиссер: Александр Ивановский
В ролях:
Николай Коновалов, Людмила Целиковская, Павел Кадочников, Александр Орлов, Тамара Павлоцкая, Татьяна Глебова, Татьяна Кондракова, Сергей Мартинсон, Анатолий Королькевич, Владимир Гардин...
Описание:
Антон Иванович играет только Баха, а его дочь учится в консерватории. За ней по пятам ходит молодой композитор, пишущий оперетты, которые Антон Иванович за музыку не считает — он из-за этого так рассердился, что даже с другом поссорился. Потребовалось вмешательство самого Иоганна Себастьяна и великолепного дебюта дочки, чтобы суровый ортодокс растаял и одобрил легкую музыку и… любовь.





Источник: DVB
Качество видео: SATRip
Формат видео: AVI
Виде: 640x480 (4:3), 25 fps, XviD ~ 1296 kbps avg, 0.169 bit/pixel
Аудио: 48 kHz, MP3 2.0, 128 kbps
Раздача от:
Общее
Полное имя : Anton.Ivanovich.serditsya.1941.SATRip-745_[New-team]_by_AVP_Studio.avi
Формат : AVI
Формат/Информация : Audio Video Interleave
Размер файла : 766 Мбайт
Продолжительность : 1 ч. 14 м.
Общий поток : 1433 Кбит/сек
Программа кодирования : VirtualDubModRus 1.5.10.2 (build 2542/release)
Библиотека кодирования : VirtualDubMod build 2542/release
Видео
Идентификатор : 0
Формат : MPEG-4 Visual
Профиль формата : Advanced Simple@L5
Параметр BVOP формата : 1
Параметр QPel формата : Нет
Параметр GMC формата : Без точки перехода
Параметр матрицы формата : Выборочная
Идентификатор кодека : XVID
Идентификатор кодека/Подсказка : XviD
Продолжительность : 1 ч. 14 м.
Битрейт : 1296 Кбит/сек
Ширина : 640 пикселей
Высота : 480 пикселей
Соотношение сторон : 4:3
Частота кадров : 25,000 кадров/сек
Цветовое пространство : YUV
Субдискретизация насыщенности : 4:2:0
Битовая глубина : 8 бит
Тип развёртки : Прогрессивная
Метод сжатия : С потерями
Бит/(Пиксели*Кадры) : 0.169
Размер потока : 693 Мбайт (90%)
Библиотека кодирования : XviD 73
Аудио
Идентификатор : 1
Формат : MPEG Audio
Версия формата : Version 1
Профиль формата : Layer 3
Идентификатор кодека : 55
Идентификатор кодека/Подсказка : MP3
Продолжительность : 1 ч. 14 м.
Вид битрейта : Постоянный
Битрейт : 128 Кбит/сек
Каналы : 1 канал
Частота : 48,0 КГц
Метод сжатия : С потерями
Размер потока : 68,4 Мбайт (9%)
Выравнивание : Соединение по промежуткам
Продолжительность промежутка : 40 мс. (1,00 видеокадр)
Время предзагрузки промежутка : 504 мс.
Библиотека кодирования : LAME3.99r
Настройки программы : -m m -V 4 -q 2 -lowpass 20.5 -b 128





   Похожие торренты   Торрент   Размер 
В этой теме нет новых непрочитанных сообщений. Антон Иванович сердится (1941) SATRip от New-Team

53 | 6

1.1 ГБ

В этой теме нет новых непрочитанных сообщений. Антон Иванович сердится (1941) SATRip-AVC от New-Team

225 | 21

1.09 ГБ

В этой теме нет новых непрочитанных сообщений. Антон Иванович сердится (1941) DVDRip

39 | 7

702.76 МБ

В этой теме нет новых непрочитанных сообщений. Как поссорился Иван Иванович с Иваном Никифоровичем (1941) DVDRip от New-Team

29 | 9

1.09 ГБ

В этой теме нет новых непрочитанных сообщений. Как поссорился Иван Иванович с Иваном Никифоровичем (1941) DVDRip

22 | 9

1.07 ГБ

В этой теме нет новых непрочитанных сообщений. Сабухи (1941) SATRip от New-Team

3 | 5

1.46 ГБ

В этой теме нет новых непрочитанных сообщений. Маскарад (1941) SATRip-AVC от New-Team

12 | 22

1.46 ГБ




Вы не можете начинать темы
Вы не можете отвечать на сообщения
Вы не можете редактировать свои сообщения
Вы не можете удалять свои сообщения
Вы не можете добавлять вложения

Перейти:  
Для Мосгорсуда, Роскомнадзора и рекламодателей: mosgorsud-torrent[собачка]yandex.ru
 Вход
ppkBB3cker v.2 © 2008-2014 @ PPK
[ Time : 8.389s | 15 Queries | GZIP : Off ]

Торрент трекер RUTOR.IN, Не можете зайти на rutor.org? Какой новый адрес рутор? Какое зеркало рутор? Не работает rutor.org и зеркала? Тогда наш торрент специально для вас. Rutor.in неофициальное зеркало rutor. В случае если у Вас заблокирован rutor или вдруг Вы не можете на него зайти, то Вы без труда сможете скачать бесплатно и без рекламы последние новинки кино, игр, сериалов и прочего у нас, на Rutor.in. Не нужно использовать прокси, чтобы зайти на рутор, достаточно воспользоваться нашим ресурсом. Все новые фильмы, игры, сериалы, книги и музыка за 2013 и 2014 годы через торрент бесплатно. Скачивайте фильмы в хорошем качестве, игры для пк, xbox, playstation без регистрации. У нас вы найдете новые Зарубежные сериалы и Русские сериалы 2013, 2014, 2015 годов. Оставайтесь с нами, качайте любимые фильмы, игры, сериалы, книги и музыку.