img image001 image001 image001 image001 image001 image001 image001 image001 image001 image001 image001 image001 image001 image001 image001

Planets Sun Sun Sun
Статистика раздачи
Автор: Nickolas3434 | Размер: 747.4 МБ | Добавлен: 28 янв 2015
Раздают: 21    Качают: 5
Скачать торрент
Скачать торрент
Описание торрента

СообщениеДобавлено: 28 янв 2015 

Страна: СССР
Производство: Киевская киностудия
Жанр: драма
Год выпуска: 1941
Продолжительность: 1:48:15
Перевод: Не требуется
Cубтитры: нет
Оригинальная аудиодорожка: русский
Режиссер: Игорь Савченко
В ролях:
Николай Мордвинов, Галина (Гарэн) Жуковская, Никита Ильченко, Борис Безгин, Андрей Иванченко, Виталий Полицеймако, Михаил Жаров, Антон Дунайский, Борис Андреев, Ростислав Ивицкий, Дмитрий Капка, Палладий Белоконь, Павел Пасека, Александр Хвыля, Михаил Высоцкий, Эмма Цесарская, Дмитрий Милютенко, Ганс Клеринг, Василий Зайчиков, Касим Мухутдинов, Генрих Грайф, Александр Давидсон, Самуил Дитлович, С. Самульчик, Б. Свешников, Василий Дашенко, Михаил Белоусов, Павел Киянский, Эмилия Мильтон, Степан Жаворонок...
Описание:
1648 год. Украина под гнетом Речи Посполитой. Шляхта бесчинствует, сжигая станицу за станицей. Гетман войска запорожского Богдан Хмельницкий собирает на сечи армию защитников отечества...





Источник: DVD5 R5
Качество видео: DVDRip
Формат видео: AVI
Виде: 576x432 (4:3), 25 fps, XviD ~ 828 kbps avg, 0.133 bit/pixel
Аудио: 48 kHz, MP3 2.0, 128 kbps
Раздача от:
Общее
Полное имя : Bogdan.Hmelnickiy.1941.DVDRip-745_[New-team]_by_AVP_Studio.avi
Формат : AVI
Формат/Информация : Audio Video Interleave
Размер файла : 747 Мбайт
Продолжительность : 1 ч. 48 м.
Общий поток : 965 Кбит/сек
Программа кодирования : VirtualDubModRus 1.5.10.2 (build 2542/release)
Библиотека кодирования : VirtualDubMod build 2542/release
Видео
Идентификатор : 0
Формат : MPEG-4 Visual
Профиль формата : Advanced Simple@L5
Параметр BVOP формата : 1
Параметр QPel формата : Нет
Параметр GMC формата : Без точки перехода
Параметр матрицы формата : Выборочная
Идентификатор кодека : XVID
Идентификатор кодека/Подсказка : XviD
Продолжительность : 1 ч. 48 м.
Битрейт : 828 Кбит/сек
Ширина : 576 пикселей
Высота : 432 пикселя
Соотношение сторон : 4:3
Частота кадров : 25,000 кадров/сек
Цветовое пространство : YUV
Субдискретизация насыщенности : 4:2:0
Битовая глубина : 8 бит
Тип развёртки : Прогрессивная
Метод сжатия : С потерями
Бит/(Пиксели*Кадры) : 0.133
Размер потока : 641 Мбайт (86%)
Библиотека кодирования : XviD 73
Аудио
Идентификатор : 1
Формат : MPEG Audio
Версия формата : Version 1
Профиль формата : Layer 3
Идентификатор кодека : 55
Идентификатор кодека/Подсказка : MP3
Продолжительность : 1 ч. 48 м.
Вид битрейта : Постоянный
Битрейт : 128 Кбит/сек
Каналы : 2 канала
Частота : 48,0 КГц
Метод сжатия : С потерями
Размер потока : 99,1 Мбайт (13%)
Выравнивание : Соединение по промежуткам
Продолжительность промежутка : 40 мс. (1,00 видеокадр)
Время предзагрузки промежутка : 504 мс.
Библиотека кодирования : LAME3.99r
Настройки программы : -m s -V 4 -q 2 -lowpass 17 -b 128





   Похожие торренты   Торрент   Размер 
В этой теме нет новых непрочитанных сообщений. Богдан Хмельницкий (1941) DVDRip-AVC от New-Team

40 | 12

1.46 ГБ

В этой теме нет новых непрочитанных сообщений. Богдан Хмельницкий (1941) DVDRip от New-Team

15 | 8

1.45 ГБ

В этой теме нет новых непрочитанных сообщений. Богдан Хмельницкий (1941) DVDRip

110 | 9

1.47 ГБ

В этой теме нет новых непрочитанных сообщений. Богдан-Зиновий Хмельницкий (2008) DVDRip

16 | 4

1.95 ГБ

В этой теме нет новых непрочитанных сообщений. Романтики (1941) DVDRip от New-Team

4 | 6

744.41 МБ

В этой теме нет новых непрочитанных сообщений. Мечта (1941) DVDRip от New-Team

10 | 4

745.04 МБ

В этой теме нет новых непрочитанных сообщений. Романтики (1941) DVDRip-AVC от New-Team

30 | 21

745.26 МБ




Вы не можете начинать темы
Вы не можете отвечать на сообщения
Вы не можете редактировать свои сообщения
Вы не можете удалять свои сообщения
Вы не можете добавлять вложения

Перейти:  
Для Мосгорсуда, Роскомнадзора и рекламодателей: mosgorsud-torrent[собачка]yandex.ru
 Вход
ppkBB3cker v.2 © 2008-2014 @ PPK
[ Time : 0.042s | 16 Queries | GZIP : Off ]

Торрент трекер RUTOR.IN, Не можете зайти на rutor.org? Какой новый адрес рутор? Какое зеркало рутор? Не работает rutor.org и зеркала? Тогда наш торрент специально для вас. Rutor.in неофициальное зеркало rutor. В случае если у Вас заблокирован rutor или вдруг Вы не можете на него зайти, то Вы без труда сможете скачать бесплатно и без рекламы последние новинки кино, игр, сериалов и прочего у нас, на Rutor.in. Не нужно использовать прокси, чтобы зайти на рутор, достаточно воспользоваться нашим ресурсом. Все новые фильмы, игры, сериалы, книги и музыка за 2013 и 2014 годы через торрент бесплатно. Скачивайте фильмы в хорошем качестве, игры для пк, xbox, playstation без регистрации. У нас вы найдете новые Зарубежные сериалы и Русские сериалы 2013, 2014, 2015 годов. Оставайтесь с нами, качайте любимые фильмы, игры, сериалы, книги и музыку.
cron