img image001 image001 image001 image001 image001 image001 image001 image001 image001 image001 image001 image001 image001 image001 image001

Planets Sun Sun Sun
Статистика раздачи
Автор: Nickolas3434 | Размер: 496.01 МБ | Добавлен: 28 янв 2015
Раздают: 11    Качают: 6
Скачать торрент
Скачать торрент
Описание торрента

СообщениеДобавлено: 28 янв 2015 

Страна: СССР
Производство: Ленфильм
Жанр: комедия, короткометражка
Год выпуска: 1941
Продолжительность: 00:34:21
Перевод: Не требуется
Cубтитры: нет
Оригинальная аудиодорожка: русский
Режиссер: Климентий Минц
В ролях:
Янина Жеймо, Степан Каюков, Константин Мусин, Николай Отто, Сергей Филиппов, Иван Пельтцер, Анатолий Королькевич, Лев Степанов...
Описание:
Лирическая комедия о кассирше Яне Корзинкиной, которая любит помогать людям. Чтобы морально поддержать начинающего певца, она отправляется с ним в театр и попадает на смотр эстрадного искусства...





Источник: DVB
Качество видео: SATRip
Формат видео: AVI
Виде: 688x512 (4:3), 25 fps, XviD ~ 1817 kbps avg, 0.206 bit/pixel
Аудио: 48 kHz, Dolby Digital AC3 2.0, 192 kbps
Раздача от:
Общее
Полное имя : Priklyucheniya.Korzinkinoy.1941.SATRip_[New-team]_by_AVP_Studio.avi
Формат : AVI
Формат/Информация : Audio Video Interleave
Размер файла : 496 Мбайт
Продолжительность : 34 м.
Общий поток : 2019 Кбит/сек
Программа кодирования : VirtualDubModRus 1.5.10.2 (build 2542/release)
Библиотека кодирования : VirtualDubMod build 2542/release
Видео
Идентификатор : 0
Формат : MPEG-4 Visual
Профиль формата : Advanced Simple@L5
Параметр BVOP формата : 1
Параметр QPel формата : Нет
Параметр GMC формата : Без точки перехода
Параметр матрицы формата : Выборочная
Идентификатор кодека : XVID
Идентификатор кодека/Подсказка : XviD
Продолжительность : 34 м.
Битрейт : 1817 Кбит/сек
Ширина : 688 пикселей
Высота : 512 пикселей
Соотношение сторон : 4:3
Частота кадров : 25,000 кадров/сек
Цветовое пространство : YUV
Субдискретизация насыщенности : 4:2:0
Битовая глубина : 8 бит
Тип развёртки : Прогрессивная
Метод сжатия : С потерями
Бит/(Пиксели*Кадры) : 0.206
Размер потока : 446 Мбайт (90%)
Библиотека кодирования : XviD 73
Аудио
Идентификатор : 1
Формат : AC-3
Формат/Информация : Audio Coding 3
Расширение режима : CM (complete main)
Параметр Endianness формата : Big
Идентификатор кодека : 2000
Продолжительность : 34 м.
Вид битрейта : Постоянный
Битрейт : 192 Кбит/сек
Каналы : 2 канала
Расположение каналов : Front: L R
Частота : 48,0 КГц
Битовая глубина : 16 бит
Метод сжатия : С потерями
Размер потока : 47,2 Мбайт (10%)
Выравнивание : Разделение по промежуткам
Продолжительность промежутка : 40 мс. (1,00 видеокадр)
Время предзагрузки промежутка : 500 мс





   Похожие торренты   Торрент   Размер 
В этой теме нет новых непрочитанных сообщений. Приключения Корзинкиной (1941) SATRip-AVC от New-Team

70 | 7

495.55 МБ

В этой теме нет новых непрочитанных сообщений. Маскарад (1941) SATRip от New-Team

109 | 12

744.84 МБ

В этой теме нет новых непрочитанных сообщений. Маскарад (1941) SATRip-AVC от New-Team

12 | 22

1.46 ГБ

В этой теме нет новых непрочитанных сообщений. Маскарад (1941) SATRip-AVC от New-Team

48 | 9

1.45 ГБ

В этой теме нет новых непрочитанных сообщений. Сабухи (1941) SATRip от New-Team

3 | 5

1.46 ГБ

В этой теме нет новых непрочитанных сообщений. Сабухи (1941) SATRip от New-Team

3 | 4

744.8 МБ

В этой теме нет новых непрочитанных сообщений. Сабухи (1941) SATRip-AVC от New-Team

3 | 6

1.46 ГБ




Вы не можете начинать темы
Вы не можете отвечать на сообщения
Вы не можете редактировать свои сообщения
Вы не можете удалять свои сообщения
Вы не можете добавлять вложения

Перейти:  
Для Мосгорсуда, Роскомнадзора и рекламодателей: mosgorsud-torrent[собачка]yandex.ru
 Вход
ppkBB3cker v.2 © 2008-2014 @ PPK
[ Time : 0.077s | 15 Queries | GZIP : Off ]

Торрент трекер RUTOR.IN, Не можете зайти на rutor.org? Какой новый адрес рутор? Какое зеркало рутор? Не работает rutor.org и зеркала? Тогда наш торрент специально для вас. Rutor.in неофициальное зеркало rutor. В случае если у Вас заблокирован rutor или вдруг Вы не можете на него зайти, то Вы без труда сможете скачать бесплатно и без рекламы последние новинки кино, игр, сериалов и прочего у нас, на Rutor.in. Не нужно использовать прокси, чтобы зайти на рутор, достаточно воспользоваться нашим ресурсом. Все новые фильмы, игры, сериалы, книги и музыка за 2013 и 2014 годы через торрент бесплатно. Скачивайте фильмы в хорошем качестве, игры для пк, xbox, playstation без регистрации. У нас вы найдете новые Зарубежные сериалы и Русские сериалы 2013, 2014, 2015 годов. Оставайтесь с нами, качайте любимые фильмы, игры, сериалы, книги и музыку.