img image001 image001 image001 image001 image001 image001 image001 image001 image001 image001 image001 image001 image001 image001 image001

Planets Sun Sun Sun
Статистика раздачи
Автор: Nickolas3434 | Размер: 755.66 МБ | Добавлен: 28 янв 2015
Раздают: 26    Качают: 6
Скачать торрент
Скачать торрент
Описание торрента

СообщениеДобавлено: 28 янв 2015 

Страна: СССР
Производство: Союздетфильм
Жанр: биография, история
Год выпуска: 1941
Продолжительность: 0:44:47
Перевод: Не требуется
Cубтитры: нет
Оригинальная аудиодорожка: русский
Режиссер: Григорий Левкоев
В ролях:
Николай Дорохин, Всеволод Санаев, Павел Шпрингфельд, Михаил Державин, Александр Хохлов, Гавриил Белов, Вячеслав Новиков, Григорий Михайлов, Иван Рыжов, Сергей Днепров...
Описание:
Историко-биографический фильм о жизни Ивана Федорова, создателя первой на Руси типографии. Печатные книги, изданные во время правления Ивана Грозного, казались колдовством. Федоров был обвинен в ереси…





Источник: DVD5 R5
Качество видео: DVDRip
Формат видео: AVI
Виде: 704x528 (4:3), 25 fps, XviD ~ 2157 kbps avg, 0.232 bit/pixel
Аудио: 48 kHz, Dolby Digital AC3 2.0, 192 kbps
Раздача от:
Общее
Полное имя : Pervopechatnik.Ivan.Fedorov.1941.DVDRip_[New-team]_by_AVP_Studio.avi
Формат : AVI
Формат/Информация : Audio Video Interleave
Размер файла : 756 Мбайт
Продолжительность : 44 м.
Общий поток : 2359 Кбит/сек
Программа кодирования : VirtualDubModRus 1.5.10.2 (build 2542/release)
Библиотека кодирования : VirtualDubMod build 2542/release
Видео
Идентификатор : 0
Формат : MPEG-4 Visual
Профиль формата : Advanced Simple@L5
Параметр BVOP формата : 1
Параметр QPel формата : Нет
Параметр GMC формата : Без точки перехода
Параметр матрицы формата : Выборочная
Идентификатор кодека : XVID
Идентификатор кодека/Подсказка : XviD
Продолжительность : 44 м.
Битрейт : 2157 Кбит/сек
Ширина : 704 пикселя
Высота : 528 пикселей
Соотношение сторон : 4:3
Частота кадров : 25,000 кадров/сек
Цветовое пространство : YUV
Субдискретизация насыщенности : 4:2:0
Битовая глубина : 8 бит
Тип развёртки : Прогрессивная
Метод сжатия : С потерями
Бит/(Пиксели*Кадры) : 0.232
Размер потока : 691 Мбайт (91%)
Библиотека кодирования : XviD 73
Аудио
Идентификатор : 1
Формат : AC-3
Формат/Информация : Audio Coding 3
Профиль формата : Dolby Digital
Расширение режима : CM (complete main)
Параметр Endianness формата : Big
Идентификатор кодека : 2000
Продолжительность : 44 м.
Вид битрейта : Постоянный
Битрейт : 192 Кбит/сек
Каналы : 2 канала
Расположение каналов : Front: L R
Частота : 48,0 КГц
Битовая глубина : 16 бит
Метод сжатия : С потерями
Размер потока : 61,5 Мбайт (8%)
Выравнивание : Разделение по промежуткам
Продолжительность промежутка : 40 мс. (1,00 видеокадр)
Время предзагрузки промежутка : 500 мс





   Похожие торренты   Торрент   Размер 
В этой теме нет новых непрочитанных сообщений. Первопечатник Иван Фёдоров (1941) DVDRip-AVC от New-Team

25 | 10

744.6 МБ

В этой теме нет новых непрочитанных сообщений. Как поссорился Иван Иванович с Иваном Никифоровичем (1941) DVDRip от New-Team

29 | 9

1.09 ГБ

В этой теме нет новых непрочитанных сообщений. Как поссорился Иван Иванович с Иваном Никифоровичем (1941) DVDRip

22 | 9

1.07 ГБ

В этой теме нет новых непрочитанных сообщений. Иван Фёдоров [2 из 2] (1991) TVRip от 089233

43 | 5

2.74 ГБ

В этой теме нет новых непрочитанных сообщений. Начало славных дел - Франциск Скорина, Иван Фёдоров, Спиридон Соболь (2010) SATRip от AND01AND

3 | 2

389.86 МБ

В этой теме нет новых непрочитанных сообщений. Боксёры (1941) DVDRip от New-Team

9 | 6

743.64 МБ

В этой теме нет новых непрочитанных сообщений. Боксёры (1941) DVDRip-AVC от New-Team

18 | 26

745.05 МБ




Вы не можете начинать темы
Вы не можете отвечать на сообщения
Вы не можете редактировать свои сообщения
Вы не можете удалять свои сообщения
Вы не можете добавлять вложения

Перейти:  
Для Мосгорсуда, Роскомнадзора и рекламодателей: mosgorsud-torrent[собачка]yandex.ru
 Вход
ppkBB3cker v.2 © 2008-2014 @ PPK
[ Time : 0.052s | 16 Queries | GZIP : Off ]

Торрент трекер RUTOR.IN, Не можете зайти на rutor.org? Какой новый адрес рутор? Какое зеркало рутор? Не работает rutor.org и зеркала? Тогда наш торрент специально для вас. Rutor.in неофициальное зеркало rutor. В случае если у Вас заблокирован rutor или вдруг Вы не можете на него зайти, то Вы без труда сможете скачать бесплатно и без рекламы последние новинки кино, игр, сериалов и прочего у нас, на Rutor.in. Не нужно использовать прокси, чтобы зайти на рутор, достаточно воспользоваться нашим ресурсом. Все новые фильмы, игры, сериалы, книги и музыка за 2013 и 2014 годы через торрент бесплатно. Скачивайте фильмы в хорошем качестве, игры для пк, xbox, playstation без регистрации. У нас вы найдете новые Зарубежные сериалы и Русские сериалы 2013, 2014, 2015 годов. Оставайтесь с нами, качайте любимые фильмы, игры, сериалы, книги и музыку.