img image001 image001 image001 image001 image001 image001 image001 image001 image001 image001 image001 image001 image001 image001 image001

Planets Sun Sun Sun
Статистика раздачи
Автор: Nickolas3434 | Размер: 1.09 ГБ | Добавлен: 28 янв 2015
Раздают: 7    Качают: 7
Скачать торрент
Скачать торрент
Описание торрента

СообщениеДобавлено: 28 янв 2015 

Страна: СССР
Производство: Одесская киностудия
Жанр: драма
Год выпуска: 1941
Продолжительность: 01:08:21
Перевод: Не требуется
Cубтитры: нет
Оригинальная аудиодорожка: русский
Режиссер: Георгий Тасин
В ролях:
Иван Пельтцер, Вера Окунева, Тамара Беляева, Александр Чистяков, Иван Любезнов, Виктор Аркасов, Николай Комиссаров, Алексей Консовский, Николай Ивакин, Виктор Проклов, Андрей Мирошниченко...
Описание:
Вместе с другими выпускниками мореходного института в родную Одессу возвращается Ирина Захарова. На комиссии по распределению она добивается назначения первым помощником капитана на пользующееся дурной славой судно «Победа», с самым разболтанным экипажем. Увлекая личным примером моряков, Ирина успешно борется за перелом в настроении матросов, а когда судно попадает в шторм, она проявляет незаурядные качества настоящего морехода. На фоне этих событий разворачивается тема лирических взаимоотношений между Ириной и влюбленным в нее штурманом краснознаменного теплохода «Абхазия» Василием.





Источник: DVD5 R5
Качество видео: DVDRip
Формат видео: AVI
Видео: 688x512 (4:3), 25 fps, XviD ~ 1826 kbps avg, 0.207 bit/pixel
Аудио: 48 kHz, Dolby Digital AC3 5.1, 448 kbps
Раздача от:
Общее
Полное имя : Doch.moryaka.1941.DVDRip_[New-team]_by_AVP_Studio.avi
Формат : AVI
Формат/Информация : Audio Video Interleave
Размер файла : 1,09 Гбайт
Продолжительность : 1 ч. 8 м.
Общий поток : 2283 Кбит/сек
Программа кодирования : VirtualDubModRus 1.5.10.2 (build 2542/release)
Библиотека кодирования : VirtualDubMod build 2542/release
Видео
Идентификатор : 0
Формат : MPEG-4 Visual
Профиль формата : Advanced Simple@L5
Параметр BVOP формата : 1
Параметр QPel формата : Нет
Параметр GMC формата : Без точки перехода
Параметр матрицы формата : Выборочная
Идентификатор кодека : XVID
Идентификатор кодека/Подсказка : XviD
Продолжительность : 1 ч. 8 м.
Битрейт : 1826 Кбит/сек
Ширина : 688 пикселей
Высота : 512 пикселей
Соотношение сторон : 4:3
Частота кадров : 25,000 кадров/сек
Цветовое пространство : YUV
Субдискретизация насыщенности : 4:2:0
Битовая глубина : 8 бит
Тип развёртки : Прогрессивная
Метод сжатия : С потерями
Бит/(Пиксели*Кадры) : 0.207
Размер потока : 893 Мбайт (80%)
Библиотека кодирования : XviD 73
Аудио
Идентификатор : 1
Формат : AC-3
Формат/Информация : Audio Coding 3
Расширение режима : CM (complete main)
Параметр Endianness формата : Big
Идентификатор кодека : 2000
Продолжительность : 1 ч. 8 м.
Вид битрейта : Постоянный
Битрейт : 448 Кбит/сек
Каналы : 6 каналов
Расположение каналов : Front: L C R, Side: L R, LFE
Частота : 48,0 КГц
Битовая глубина : 16 бит
Метод сжатия : С потерями
Размер потока : 219 Мбайт (20%)
Выравнивание : Разделение по промежуткам
Продолжительность промежутка : 40 мс. (1,00 видеокадр)
Время предзагрузки промежутка : 500 мс





   Похожие торренты   Торрент   Размер 
В этой теме нет новых непрочитанных сообщений. Дочь моряка (1941) DVDRip-AVC от New-Team

16 | 12

1.09 ГБ

В этой теме нет новых непрочитанных сообщений. Дочь моряка (1941) DVDRip от New-Team

3 | 5

742.56 МБ

В этой теме нет новых непрочитанных сообщений. Дочь моряка (1941) DVB от AND03AND

13 | 4

1.19 ГБ

В этой теме нет новых непрочитанных сообщений. Боксёры (1941) DVDRip-AVC от New-Team

18 | 26

745.05 МБ

В этой теме нет новых непрочитанных сообщений. Романтики (1941) DVDRip от New-Team

4 | 6

744.41 МБ

В этой теме нет новых непрочитанных сообщений. Романтики (1941) DVDRip-AVC от New-Team

30 | 21

745.26 МБ

В этой теме нет новых непрочитанных сообщений. Боксёры (1941) DVDRip от New-Team

9 | 6

743.64 МБ




Вы не можете начинать темы
Вы не можете отвечать на сообщения
Вы не можете редактировать свои сообщения
Вы не можете удалять свои сообщения
Вы не можете добавлять вложения

Перейти:  
Для Мосгорсуда, Роскомнадзора и рекламодателей: mosgorsud-torrent[собачка]yandex.ru
 Вход
ppkBB3cker v.2 © 2008-2014 @ PPK
[ Time : 0.030s | 15 Queries | GZIP : Off ]

Торрент трекер RUTOR.IN, Не можете зайти на rutor.org? Какой новый адрес рутор? Какое зеркало рутор? Не работает rutor.org и зеркала? Тогда наш торрент специально для вас. Rutor.in неофициальное зеркало rutor. В случае если у Вас заблокирован rutor или вдруг Вы не можете на него зайти, то Вы без труда сможете скачать бесплатно и без рекламы последние новинки кино, игр, сериалов и прочего у нас, на Rutor.in. Не нужно использовать прокси, чтобы зайти на рутор, достаточно воспользоваться нашим ресурсом. Все новые фильмы, игры, сериалы, книги и музыка за 2013 и 2014 годы через торрент бесплатно. Скачивайте фильмы в хорошем качестве, игры для пк, xbox, playstation без регистрации. У нас вы найдете новые Зарубежные сериалы и Русские сериалы 2013, 2014, 2015 годов. Оставайтесь с нами, качайте любимые фильмы, игры, сериалы, книги и музыку.