img image001 image001 image001 image001 image001 image001 image001 image001 image001 image001 image001 image001 image001 image001 image001

Planets Sun Sun Sun
Статистика раздачи
Автор: Nickolas3434 | Размер: 744.21 МБ | Добавлен: 29 янв 2015
Раздают: 9    Качают: 6
Скачать торрент
Скачать торрент
Описание торрента

СообщениеДобавлено: 29 янв 2015 

Страна: СССР
Производство: Одесская киностудия
Жанр: приключения
Год выпуска: 1941
Продолжительность: 01:11:09
Перевод: Не требуется
Cубтитры: нет
Оригинальная аудиодорожка: русский
Режиссер: Владимир Браун
В ролях:
Иван Переверзев, Андрей Файт, Осип Абдулов, Андрей Сова, Леонид Кмит, Ганс Клеринг, Чеслав Сушкевич, Иван Бобров, Леонид Рахленко, Николай Комиссаров, Эммануил Геллер и другие...
Описание:
Канун Великой Отечественной войны. В Чёрном море немецкая подводная лодка-"оборотень", замаскированная под парусник торгового флота, нападает на иностранные торговые суда и топит их. На перехват отправляется советское торговое судно «Чайка», переоборудованное в военное. Артиллерийские орудия на корабле замаскированы, команда из лучших военных моряков переодета в гражданскую форму.
После первого столкновения с неприятелем капитан-лейтенант Найдёнов отдаёт приказ закамуфлировать судно под лесовоз «Морской ястреб». К утру 22 июня работа закончена. В этот день немецкий пират вновь нападает на советский корабль...





Источник: DVD5 R5
Качество видео: DVDRip
Формат видео: AVI
Видео: 688x512 (4:3), 25 fps, XviD ~ 1325 kbps avg, 0.150 bit/pixel
Аудио: 48 kHz, MP3 2.0, 128 kbps
Раздача от:
Общее
Полное имя : Morskoy.yastreb.1941.DVDRip-745_[New-team]_by_AVP_Studio.avi
Формат : AVI
Формат/Информация : Audio Video Interleave
Размер файла : 744 Мбайт
Продолжительность : 1 ч. 11 м.
Общий поток : 1462 Кбит/сек
Программа кодирования : VirtualDubModRus 1.5.10.2 (build 2542/release)
Библиотека кодирования : VirtualDubMod build 2542/release
Видео
Идентификатор : 0
Формат : MPEG-4 Visual
Профиль формата : Advanced Simple@L5
Параметр BVOP формата : 1
Параметр QPel формата : Нет
Параметр GMC формата : Без точки перехода
Параметр матрицы формата : Выборочная
Идентификатор кодека : XVID
Идентификатор кодека/Подсказка : XviD
Продолжительность : 1 ч. 11 м.
Битрейт : 1325 Кбит/сек
Ширина : 688 пикселей
Высота : 512 пикселей
Соотношение сторон : 4:3
Частота кадров : 25,000 кадров/сек
Цветовое пространство : YUV
Субдискретизация насыщенности : 4:2:0
Битовая глубина : 8 бит
Тип развёртки : Прогрессивная
Метод сжатия : С потерями
Бит/(Пиксели*Кадры) : 0.150
Размер потока : 674 Мбайт (91%)
Библиотека кодирования : XviD 73
Аудио
Идентификатор : 1
Формат : MPEG Audio
Версия формата : Version 1
Профиль формата : Layer 3
Идентификатор кодека : 55
Идентификатор кодека/Подсказка : MP3
Продолжительность : 1 ч. 11 м.
Вид битрейта : Постоянный
Битрейт : 128 Кбит/сек
Каналы : 2 канала
Частота : 48,0 КГц
Метод сжатия : С потерями
Размер потока : 65,1 Мбайт (9%)
Выравнивание : Соединение по промежуткам
Продолжительность промежутка : 40 мс. (1,00 видеокадр)
Время предзагрузки промежутка : 504 мс.
Библиотека кодирования : LAME3.99r
Настройки программы : -m s -V 4 -q 2 -lowpass 17 -b 128





   Похожие торренты   Торрент   Размер 
В этой теме нет новых непрочитанных сообщений. Морской ястреб (1941) DVDRip-AVC от New-Team

12 | 12

1.09 ГБ

В этой теме нет новых непрочитанных сообщений. Морской ястреб (1941) DVDRip от New-Team

16 | 5

1.09 ГБ

В этой теме нет новых непрочитанных сообщений. Морской ястреб / The Sea Hawk (1940) DVDRip от Generalfilm

2 | 3

2.06 ГБ

В этой теме нет новых непрочитанных сообщений. Подводная лодка Т-9 + Четвертый перископ + Морской ястреб + В мирные дни (1939-1950) DVDRip от Generalfilm

22 | 9

2.75 ГБ

В этой теме нет новых непрочитанных сообщений. Морской батальон (1944) DVDRip от New-Team

5 | 9

1.09 ГБ

В этой теме нет новых непрочитанных сообщений. Морской батальон (1944) DVDRip-AVC от New-Team

49 | 14

1.09 ГБ

В этой теме нет новых непрочитанных сообщений. Морской батальон (1944) DVDRip от New-Team

18 | 5

744.8 МБ




Вы не можете начинать темы
Вы не можете отвечать на сообщения
Вы не можете редактировать свои сообщения
Вы не можете удалять свои сообщения
Вы не можете добавлять вложения

Перейти:  
Для Мосгорсуда, Роскомнадзора и рекламодателей: mosgorsud-torrent[собачка]yandex.ru
 Вход
ppkBB3cker v.2 © 2008-2014 @ PPK
[ Time : 0.039s | 15 Queries | GZIP : Off ]

Торрент трекер RUTOR.IN, Не можете зайти на rutor.org? Какой новый адрес рутор? Какое зеркало рутор? Не работает rutor.org и зеркала? Тогда наш торрент специально для вас. Rutor.in неофициальное зеркало rutor. В случае если у Вас заблокирован rutor или вдруг Вы не можете на него зайти, то Вы без труда сможете скачать бесплатно и без рекламы последние новинки кино, игр, сериалов и прочего у нас, на Rutor.in. Не нужно использовать прокси, чтобы зайти на рутор, достаточно воспользоваться нашим ресурсом. Все новые фильмы, игры, сериалы, книги и музыка за 2013 и 2014 годы через торрент бесплатно. Скачивайте фильмы в хорошем качестве, игры для пк, xbox, playstation без регистрации. У нас вы найдете новые Зарубежные сериалы и Русские сериалы 2013, 2014, 2015 годов. Оставайтесь с нами, качайте любимые фильмы, игры, сериалы, книги и музыку.