img image001 image001 image001 image001 image001 image001 image001 image001 image001 image001 image001 image001 image001 image001 image001

Planets Sun Sun Sun
Статистика раздачи
Автор: Nickolas3434 | Размер: 746.05 МБ | Добавлен: 30 янв 2015
Раздают: 234    Качают: 13
Скачать торрент
Скачать торрент
Описание торрента

СообщениеДобавлено: 30 янв 2015 

Информация о фильме
Название: Новогодняя жена
Год выхода: 2012
Жанр: Комедия, мелодрама
Режиссёр: Светлана Музыченко
В ролях: Сергей Перегудов, Карина Андоленко, Алёна Яковлева, Анна Донченко, Александр Арсентьев, Антон Васильев, Алексей Гришин
О фильме: В самый разгар вечеринки в клубе Даша и Максим встречают друг друга... и просыпаются в одной постели... Решив, что их свела сама судьба, герои принимаются строить идеальные, «правильные» отношения и...подают заявление в ЗАГС, предварительно заключив пари: если в течение месяца им удастся не просто прожить вместе, но и сохранить чувство влюбленности, дело закончится свадьбой. Максим с Дашей изо всех сил пытаются стать настоящей парой, хотя жизнь постоянно проверяет их отношения на прочность. А тут и оставленные в прошлом «пассии» тоже внезапно воспылали чувствами к отринутым «половинкам». Героям предстоит пережить немало смешных, а порой драматичных ситуаций, прежде чем они поймут, есть ли действительно между ними то самое, ради чего все затевалось - любовь...

Выпущено: Россия, Про100 Фильм
Продолжительность: 01:32:55
Перевод: Не требуется
Файл
Качество: HDTVRip [Исходник: HDTV (1080i) от MediaClub]
Видео: XviD, 656x368 (16:9), 985 Кбит/с, 25 кадр/с
Аудио: Русский, MP3, 48000 Гц, 128 Кбит/с, 2 канала (Стерео)

Когда Даша предлагает Максиму «помогайку» - конфету от всех невзгод, - то сначала протягивает ему конфету «Белочка», а в следующем кадре «Мишку на севере», а потом вновь «Белочку».
General
Complete name : Novogodnyaya.zhena.2012.HDTVRip.745MB.avi
Format : AVI
Format/Info : Audio Video Interleave
File size : 746 MiB
Duration : 1h 32mn
Overall bit rate : 1 123 Kbps
Writing application : VirtualDubMod 1.5.10.3 (build 2550/release)
Writing library : VirtualDubMod build 2550/release
Copyright : rip by ivandubskoj
Video
ID : 0
Format : MPEG-4 Visual
Format profile : Advanced Simple@L5
Format settings, BVOP : 2
Format settings, QPel : No
Format settings, GMC : No warppoints
Format settings, Matrix : Custom
Codec ID : XVID
Codec ID/Hint : XviD
Duration : 1h 32mn
Bit rate : 985 Kbps
Width : 656 pixels
Height : 368 pixels
Display aspect ratio : 16:9
Frame rate : 25.000 fps
Color space : YUV
Chroma subsampling : 4:2:0
Bit depth : 8 bits
Scan type : Progressive
Compression mode : Lossy
Bits/(Pixel*Frame) : 0.163
Stream size : 655 MiB (88%)
Writing library : XviD 73
Audio
ID : 1
Format : MPEG Audio
Format version : Version 1
Format profile : Layer 3
Codec ID : 55
Codec ID/Hint : MP3
Duration : 1h 32mn
Bit rate mode : Constant
Bit rate : 128 Kbps
Channel(s) : 2 channels
Sampling rate : 48.0 KHz
Compression mode : Lossy
Stream size : 85.1 MiB (11%)
Alignment : Aligned on interleaves
Interleave, duration : 40 ms (1.00 video frame)
Interleave, preload duration : 504 ms
Writing library : LAME3.99r
Encoding settings : -m s -V 4 -q 0 -lowpass 17 -b 128




Автор рипа - ivandubskoj



   Похожие торренты   Торрент   Размер 
В этой теме нет новых непрочитанных сообщений. Новогодняя жена (2012) HDTVRip от ivandubskoj

333 | 25

1.46 ГБ

В этой теме нет новых непрочитанных сообщений. Новогодняя жена (2012) HDTVRip от MediaClub | КПК

386 | 22

420.81 МБ

В этой теме нет новых непрочитанных сообщений. Новогодняя жена (2012) HDTVRip от Files-x

814 | 32

1.01 ГБ

В этой теме нет новых непрочитанных сообщений. Новогодняя жена (2012) DVB

15 | 6

3.67 ГБ

В этой теме нет новых непрочитанных сообщений. Новогодняя жена (2012) SATRip

206 | 12

1.36 ГБ

В этой теме нет новых непрочитанных сообщений. Новогодняя жена (2012) WEB-DLRip-AVC

141 | 16

1.45 ГБ

В этой теме нет новых непрочитанных сообщений. Новогодняя жена (2012) SATRip

85 | 6

700.65 МБ




Вы не можете начинать темы
Вы не можете отвечать на сообщения
Вы не можете редактировать свои сообщения
Вы не можете удалять свои сообщения
Вы не можете добавлять вложения

Перейти:  
Для Мосгорсуда, Роскомнадзора и рекламодателей: mosgorsud-torrent[собачка]yandex.ru
 Вход
ppkBB3cker v.2 © 2008-2014 @ PPK
[ Time : 0.020s | 15 Queries | GZIP : On ]

Торрент трекер RUTOR.IN, Не можете зайти на rutor.org? Какой новый адрес рутор? Какое зеркало рутор? Не работает rutor.org и зеркала? Тогда наш торрент специально для вас. Rutor.in неофициальное зеркало rutor. В случае если у Вас заблокирован rutor или вдруг Вы не можете на него зайти, то Вы без труда сможете скачать бесплатно и без рекламы последние новинки кино, игр, сериалов и прочего у нас, на Rutor.in. Не нужно использовать прокси, чтобы зайти на рутор, достаточно воспользоваться нашим ресурсом. Все новые фильмы, игры, сериалы, книги и музыка за 2013 и 2014 годы через торрент бесплатно. Скачивайте фильмы в хорошем качестве, игры для пк, xbox, playstation без регистрации. У нас вы найдете новые Зарубежные сериалы и Русские сериалы 2013, 2014, 2015 годов. Оставайтесь с нами, качайте любимые фильмы, игры, сериалы, книги и музыку.