img image001 image001 image001 image001 image001 image001 image001 image001 image001 image001 image001 image001 image001 image001 image001

Planets Sun Sun Sun
Статистика раздачи
Автор: Nickolas3434 | Размер: 745.75 МБ | Добавлен: 30 янв 2015
Раздают: 10    Качают: 13
Скачать торрент
Скачать торрент
Описание торрента

СообщениеДобавлено: 30 янв 2015 

Страна: СССР
Производство: Студия Горького
Жанр: семейный, детский, приключения
Год выпуска: 1954
Продолжительность: 01:10:53
Перевод: Не требуется
Cубтитры: нет
Оригинальная аудиодорожка: русский
Режиссер: Виктор Эйсымонт
В ролях:
Леонид Крауклис, Володя Гуськов, Миша Аронов, Витя Белов, Наташа Заслуева, Ксения Спиридонова, Борис Бурляев, Вера Орлова, Даниил Сагал, Янина Жеймо, Ирина Зарубина, Ксана Бибина, Николай Сморчков, Виктор Хохряков...
Описание:
Много огорчений причиняют пионерскому звену два неразлучных дружка, Витя Малеев и Костя Шишкин: в дневниках у них то и дело появляются двойки. Друзья слишком увлекаются футболом. Только сумерки заставляют их покинуть спортивную площадку. Мать Вити Малеева отбирает у сына футбольный мяч, но друзья изобретают новые развлечения, и количество двоек в их дневниках угрожающе растёт. Костя Шишкин под предлогом «болезни» вовсе перестает посещать школу…





Источник: DVB
Качество видео: SATRip
Формат видео: AVI
Видео: 688x512 (4:3), 25 fps, XviD ~ 1333 kbps avg, 0.151 bit/pixel
Аудио: 48 kHz, MP3 2.0, 128 kbps
Раздача от:
Общее
Полное имя : Dva.druga.1954.SATRip-745_[New-team]_by_AVP_Studio.avi
Формат : AVI
Формат/Информация : Audio Video Interleave
Размер файла : 746 Мбайт
Продолжительность : 1 ч. 10 м.
Общий поток : 1471 Кбит/сек
Программа кодирования : VirtualDubModRus 1.5.10.2 (build 2542/release)
Библиотека кодирования : VirtualDubMod build 2542/release
Видео
Идентификатор : 0
Формат : MPEG-4 Visual
Профиль формата : Advanced Simple@L5
Параметр BVOP формата : 1
Параметр QPel формата : Нет
Параметр GMC формата : Без точки перехода
Параметр матрицы формата : Выборочная
Идентификатор кодека : XVID
Идентификатор кодека/Подсказка : XviD
Продолжительность : 1 ч. 10 м.
Битрейт : 1333 Кбит/сек
Ширина : 688 пикселей
Высота : 512 пикселей
Соотношение сторон : 4:3
Частота кадров : 25,000 кадров/сек
Цветовое пространство : YUV
Субдискретизация насыщенности : 4:2:0
Битовая глубина : 8 бит
Тип развёртки : Прогрессивная
Метод сжатия : С потерями
Бит/(Пиксели*Кадры) : 0.151
Размер потока : 676 Мбайт (91%)
Библиотека кодирования : XviD 73
Аудио
Идентификатор : 1
Формат : MPEG Audio
Версия формата : Version 1
Профиль формата : Layer 3
Идентификатор кодека : 55
Идентификатор кодека/Подсказка : MP3
Продолжительность : 1 ч. 10 м.
Вид битрейта : Постоянный
Битрейт : 128 Кбит/сек
Каналы : 2 канала
Частота : 48,0 КГц
Метод сжатия : С потерями
Размер потока : 64,9 Мбайт (9%)
Выравнивание : Соединение по промежуткам
Продолжительность промежутка : 40 мс. (1,00 видеокадр)
Время предзагрузки промежутка : 504 мс.
Библиотека кодирования : LAME3.99r
Настройки программы : -m s -V 4 -q 2 -lowpass 17 -b 128





   Похожие торренты   Торрент   Размер 
В этой теме нет новых непрочитанных сообщений. Два друга (1954) SATRip-AVC от New-Team

21 | 5

1.09 ГБ

В этой теме нет новых непрочитанных сообщений. Два друга (1954) SATRip от New-Team

41 | 8

1.09 ГБ

В этой теме нет новых непрочитанных сообщений. Два друга (1954) TVRip (DVD5)

3 | 2

3.63 ГБ

В этой теме нет новых непрочитанных сообщений. Стрекоза (1954) SATRip от New-Team

22 | 7

1.09 ГБ

В этой теме нет новых непрочитанных сообщений. Стрекоза (1954) SATRip от New-Team

20 | 5

744.79 МБ

В этой теме нет новых непрочитанных сообщений. Стрекоза (1954) SATRip-AVC от New-Team

45 | 2

1.09 ГБ

В этой теме нет новых непрочитанных сообщений. Чемпион мира (1954) SATRip от New-Team

25 | 8

1.09 ГБ




Вы не можете начинать темы
Вы не можете отвечать на сообщения
Вы не можете редактировать свои сообщения
Вы не можете удалять свои сообщения
Вы не можете добавлять вложения

Перейти:  
Для Мосгорсуда, Роскомнадзора и рекламодателей: mosgorsud-torrent[собачка]yandex.ru
 Вход
ppkBB3cker v.2 © 2008-2014 @ PPK
[ Time : 0.027s | 15 Queries | GZIP : Off ]

Торрент трекер RUTOR.IN, Не можете зайти на rutor.org? Какой новый адрес рутор? Какое зеркало рутор? Не работает rutor.org и зеркала? Тогда наш торрент специально для вас. Rutor.in неофициальное зеркало rutor. В случае если у Вас заблокирован rutor или вдруг Вы не можете на него зайти, то Вы без труда сможете скачать бесплатно и без рекламы последние новинки кино, игр, сериалов и прочего у нас, на Rutor.in. Не нужно использовать прокси, чтобы зайти на рутор, достаточно воспользоваться нашим ресурсом. Все новые фильмы, игры, сериалы, книги и музыка за 2013 и 2014 годы через торрент бесплатно. Скачивайте фильмы в хорошем качестве, игры для пк, xbox, playstation без регистрации. У нас вы найдете новые Зарубежные сериалы и Русские сериалы 2013, 2014, 2015 годов. Оставайтесь с нами, качайте любимые фильмы, игры, сериалы, книги и музыку.