img image001 image001 image001 image001 image001 image001 image001 image001 image001 image001 image001 image001 image001 image001 image001

Planets Sun Sun Sun
Статистика раздачи
Автор: Nickolas3434 | Размер: 16.85 ГБ | Добавлен: 31 янв 2015
Раздают: 68    Качают: 10
Скачать торрент
Скачать торрент
Описание торрента

СообщениеДобавлено: 31 янв 2015 

Информация о фильме
Оригинальное название: Василиса
Год выпуска: 2014
Жанр: Исторический, мелодрама
Выпущено: Россия, Всемирные Русские Студии
Режиссер: Антон Сиверс
В ролях: Светлана Ходченкова, Дмитрий Соломыкин, Жером Кузан, Кристина Кузьмина, Игорь Черневич, Андрей Ильин, Ирина Розанова, Илья Носков, Андрей Носков, Жоанн Морио
О фильме: Он дворянин, а она — крепостная крестьянка… Им не суждено быть вместе. Возможно, так и закончилась бы эта любовная история, если бы не война. Наполеон вторгся в пределы Российской Империи, и этот день изменил привычный уклад и сословные предрассудки. Мир больше никогда не станет прежним. Война пишет новую историю любви.

Файл
Качество: Blu-Ray Remux (1080p)
Видео: MPEG-4 AVC, 22013 Kбит/с, 1920x1080, 24 кадр/с
Аудио: Русский (AC3, 6 ch, 640 Кбит/с), (DTS, 6 ch, 1510 Кбит/с)
Размер: 16.85 ГБ
Продолжительность: 01:39:50
Язык: Русский
За исходник, большое спасибо HDClub
Сохранены оригинальные чаптеры как на Blu-Ray.
Озвучивание - (лицензия)
Общее
Уникальный идентификатор : 174805747519409231474152144523979351337 (0x83825CC39DAED37996DF9DCE94D76529)
Полное имя : D:ЗагрузкиVasilisa.2014.BDRemux.(1080p).ExKinoRay.mkv
Формат : Matroska
Версия формата : Version 2
Размер файла : 16,9 Гбайт
Продолжительность : 1 ч. 39 м.
Режим общего битрейта : Переменный
Общий поток : 24,2 Мбит/сек
Название фильма : Василиса.2014.Сборка: ollan
Дата кодирования : UTC 2015-01-30 14:21:08
Программа кодирования : mkvmerge v5.6.0 ('Kenya Kane') built on May 27 2012 16:44:04
Библиотека кодирования : libebml v1.2.3 + libmatroska v1.3.0
Видео
Идентификатор : 1
Формат : AVC
Формат/Информация : Advanced Video Codec
Профиль формата : High@L4.1
Параметр CABAC формата : Да
Параметр ReFrames формата : 4 кадра
Параметр GOP формата : M=3, N=24
Идентификатор кодека : V_MPEG4/ISO/AVC
Продолжительность : 1 ч. 39 м.
Вид битрейта : Переменный
Битрейт : 21,5 Мбит/сек
Максимальный битрейт : 35,0 Мбит/сек
Ширина : 1920 пикселей
Высота : 1080 пикселей
Соотношение сторон : 16:9
Режим частоты кадров : Постоянный
Частота кадров : 24,000 кадра/сек
Стандарт вещания : NTSC
Цветовое пространство : YUV
Субдискретизация насыщенности : 4:2:0
Битовая глубина : 8 бит
Тип развёртки : Прогрессивная
Бит/(Пиксели*Кадры) : 0.433
Размер потока : 15,0 Гбайт (89%)
Язык : Russian
Default : Да
Forced : Нет
Основные цвета : BT.709
Характеристики трансфера : BT.709
Коэффициенты матрицы : BT.709
Аудио #1
Идентификатор : 2
Формат : AC-3
Формат/Информация : Audio Coding 3
Расширение режима : CM (complete main)
Параметр Endianness формата : Big
Идентификатор кодека : A_AC3
Продолжительность : 1 ч. 39 м.
Вид битрейта : Постоянный
Битрейт : 640 Кбит/сек
Каналы : 6 каналов
Расположение каналов : Front: L C R, Side: L R, LFE
Частота : 48,0 КГц
Битовая глубина : 16 бит
Метод сжатия : С потерями
Размер потока : 457 Мбайт (3%)
Язык : Russian
Default : Да
Forced : Нет
Аудио #2
Идентификатор : 3
Формат : DTS
Формат/Информация : Digital Theater Systems
Режим : 16
Параметр Endianness формата : Big
Идентификатор кодека : A_DTS
Продолжительность : 1 ч. 39 м.
Вид битрейта : Постоянный
Битрейт : 1510 Кбит/сек
Каналы : 6 каналов
Расположение каналов : Front: L C R, Side: L R, LFE
Частота : 48,0 КГц
Битовая глубина : 24 бит
Метод сжатия : С потерями
Размер потока : 1,05 Гбайт (6%)
Язык : Russian
Default : Нет
Forced : Нет
Меню
00:00:00.000 : ru:Chapter 01
00:09:02.916 : ru:Chapter 02
00:16:54.291 : ru:Chapter 03
00:25:18.333 : ru:Chapter 04
00:32:28.958 : ru:Chapter 05
00:39:30.750 : ru:Chapter 06
00:48:20.250 : ru:Chapter 07
00:56:40.041 : ru:Chapter 08
01:02:57.666 : ru:Chapter 09
01:11:52.375 : ru:Chapter 10
01:18:57.083 : ru:Chapter 11
01:27:22.125 : ru:Chapter 12
01:39:50.458 : ru:Chapter 13





Релиз от: Cборка:



   Похожие торренты   Торрент   Размер 
В этой теме нет новых непрочитанных сообщений. Василиса (2014) BDRip 1080p от ExKinoRay | Лицензия

61 | 10

10.02 ГБ

В этой теме нет новых непрочитанных сообщений. Василиса (2014) Blu-ray 1080p | Лицензия

32 | 34

18.55 ГБ

В этой теме нет новых непрочитанных сообщений. Лучшее во мне / The Best of Me (2014) BDRemux 1080p от ExKinoRay | D | Лицензия

46 | 6

19.87 ГБ

В этой теме нет новых непрочитанных сообщений. Седьмой сын / Seventh Son (2014) BDRemux 1080p от ExKinoRay | Лицензия

183 | 20

26.04 ГБ

В этой теме нет новых непрочитанных сообщений. Свалка / Trash (2014) BDRemux 1080p от ExKinoRay | Лицензия

40 | 11

29.65 ГБ

В этой теме нет новых непрочитанных сообщений. Лофт / The Loft (2014) BDRemux 1080p от ExKinoRay | D | Лицензия

202 | 35

26.01 ГБ

В этой теме нет новых непрочитанных сообщений. Люси / Lucy (2014) BDRemux 1080p от ExKinoRay | Лицензия

850 | 151

20.05 ГБ




Вы не можете начинать темы
Вы не можете отвечать на сообщения
Вы не можете редактировать свои сообщения
Вы не можете удалять свои сообщения
Вы не можете добавлять вложения

Перейти:  
Для Мосгорсуда, Роскомнадзора и рекламодателей: mosgorsud-torrent[собачка]yandex.ru
 Вход
ppkBB3cker v.2 © 2008-2014 @ PPK
[ Time : 0.045s | 15 Queries | GZIP : Off ]

Торрент трекер RUTOR.IN, Не можете зайти на rutor.org? Какой новый адрес рутор? Какое зеркало рутор? Не работает rutor.org и зеркала? Тогда наш торрент специально для вас. Rutor.in неофициальное зеркало rutor. В случае если у Вас заблокирован rutor или вдруг Вы не можете на него зайти, то Вы без труда сможете скачать бесплатно и без рекламы последние новинки кино, игр, сериалов и прочего у нас, на Rutor.in. Не нужно использовать прокси, чтобы зайти на рутор, достаточно воспользоваться нашим ресурсом. Все новые фильмы, игры, сериалы, книги и музыка за 2013 и 2014 годы через торрент бесплатно. Скачивайте фильмы в хорошем качестве, игры для пк, xbox, playstation без регистрации. У нас вы найдете новые Зарубежные сериалы и Русские сериалы 2013, 2014, 2015 годов. Оставайтесь с нами, качайте любимые фильмы, игры, сериалы, книги и музыку.