img image001 image001 image001 image001 image001 image001 image001 image001 image001 image001 image001 image001 image001 image001 image001

Planets Sun Sun Sun
Статистика раздачи
Автор: Nickolas3434 | Размер: 10.02 ГБ | Добавлен: 01 фев 2015
Раздают: 61    Качают: 10
Скачать торрент
Скачать торрент
Описание торрента

СообщениеДобавлено: 01 фев 2015 

Информация о фильме
Оригинальное название: Василиса
Год выпуска: 2014
Жанр: Исторический, мелодрама
Выпущено: Россия, Всемирные Русские Студии
Режиссер: Антон Сиверс
В ролях: Светлана Ходченкова, Дмитрий Соломыкин, Жером Кузан, Кристина Кузьмина, Игорь Черневич, Андрей Ильин, Ирина Розанова, Илья Носков, Андрей Носков, Жоанн Морио
О фильме: Он дворянин, а она — крепостная крестьянка… Им не суждено быть вместе. Возможно, так и закончилась бы эта любовная история, если бы не война. Наполеон вторгся в пределы Российской Империи, и этот день изменил привычный уклад и сословные предрассудки. Мир больше никогда не станет прежним. Война пишет новую историю любви.

Файл
Качество: BDRip (1080p)
Видео: MPEG-4 AVC, 12222 Kбит/с, 1920x1080, 24 кадр/с
Аудио: Русский (AC3, 6 ch, 640 Кбит/с), (DTS, 6 ch, 1510 Кбит/с)
Размер: 10.02 ГБ
Продолжительность: 01:39:50
Язык: Русский
Сохранены оригинальные чаптеры как на Blu-Ray.
Озвучивание - (лицензия)
x264 [info]: frame I:1015 Avg QP:17.64 size:263435
x264 [info]: frame P:39080 Avg QP:19.75 size: 97795
x264 [info]: frame B:103677 Avg QP:21.50 size: 48792
x264 [info]: consecutive B-frames: 5.4% 6.1% 13.7% 23.7% 16.4% 31.0% 2.4% 0.6% 0.5% 0.3%
x264 [info]: mb I I16..4: 12.0% 79.0% 9.0%
x264 [info]: mb P I16..4: 10.8% 33.0% 3.0% P16..4: 23.7% 18.7% 4.1% 1.3% 0.1% skip: 5.3%
x264 [info]: mb B I16..4: 4.6% 10.3% 0.7% B16..8: 31.0% 13.4% 2.0% direct: 9.9% skip:28.2% L0:41.5% L1:42.1% BI:16.5%
x264 [info]: 8x8 transform intra:68.7% inter:65.5%
x264 [info]: direct mvs spatial:98.3% temporal:1.7%
x264 [info]: coded y,uvDC,uvAC intra: 71.1% 73.5% 44.1% inter: 32.7% 37.1% 13.6%
x264 [info]: i16 v,h,dc,p: 22% 15% 19% 44%
x264 [info]: i8 v,h,dc,ddl,ddr,vr,hd,vl,hu: 13% 9% 16% 8% 9% 10% 10% 10% 13%
x264 [info]: i4 v,h,dc,ddl,ddr,vr,hd,vl,hu: 16% 10% 26% 6% 9% 9% 8% 7% 9%
x264 [info]: i8c dc,h,v,p: 37% 28% 21% 14%
x264 [info]: Weighted P-Frames: Y:8.6% UV:5.9%
x264 [info]: ref P L0: 54.1% 12.9% 23.2% 8.3% 1.4% 0.1%
x264 [info]: ref B L0: 88.6% 9.2% 2.2%
x264 [info]: ref B L1: 94.5% 5.5%
x264 [info]: kb/s:12216.40

Общее
Уникальный идентификатор : 224390265430584789235800088629404409880 (0xA8CFFE3E90CF98A2B6B7D13D9466A018)
Полное имя : D:ЗагрузкиVasilisa.2014.BDRip.(1080p).ExKinoRay.mkv
Формат : Matroska
Версия формата : Version 2
Размер файла : 10,0 Гбайт
Продолжительность : 1 ч. 39 м.
Общий поток : 14,4 Мбит/сек
Название фильма : Василиса.2014.Rip by: ollan
Дата кодирования : UTC 2015-01-31 07:34:59
Программа кодирования : mkvmerge v5.6.0 ('Kenya Kane') built on May 27 2012 16:44:04
Библиотека кодирования : libebml v1.2.3 + libmatroska v1.3.0
Видео
Идентификатор : 1
Формат : AVC
Формат/Информация : Advanced Video Codec
Профиль формата : High@L4.1
Параметр CABAC формата : Да
Параметр ReFrames формата : 4 кадра
Идентификатор кодека : V_MPEG4/ISO/AVC
Продолжительность : 1 ч. 39 м.
Битрейт : 12,2 Мбит/сек
Ширина : 1920 пикселей
Высота : 1080 пикселей
Соотношение сторон : 16:9
Режим частоты кадров : Постоянный
Частота кадров : 24,000 кадра/сек
Цветовое пространство : YUV
Субдискретизация насыщенности : 4:2:0
Битовая глубина : 8 бит
Тип развёртки : Прогрессивная
Бит/(Пиксели*Кадры) : 0.246
Размер потока : 8,32 Гбайт (83%)
Библиотека кодирования : x264 core 125 r2200 999b753
Настройки программы : cabac=1 / ref=4 / deblock=1:-3:-2 / analyse=0x3:0x133 / me=umh / subme=11 / psy=1 / psy_rd=1.00:0.10 / mixed_ref=1 / me_range=32 / chroma_me=1 / trellis=2 / 8x8dct=1 / cqm=0 / deadzone=21,11 / fast_pskip=0 / chroma_qp_offset=-3 / threads=12 / lookahead_threads=2 / sliced_threads=0 / nr=0 / decimate=0 / interlaced=0 / bluray_compat=0 / constrained_intra=0 / bframes=9 / b_pyramid=2 / b_adapt=2 / b_bias=0 / direct=3 / weightb=1 / open_gop=0 / weightp=2 / keyint=240 / keyint_min=23 / scenecut=40 / intra_refresh=0 / rc=2pass / mbtree=0 / bitrate=12222 / ratetol=1.0 / qcomp=0.60 / qpmin=0 / qpmax=69 / qpstep=4 / cplxblur=20.0 / qblur=0.5 / ip_ratio=1.40 / pb_ratio=1.30 / aq=1:1.00
Default : Да
Forced : Нет
Аудио #1
Идентификатор : 2
Формат : AC-3
Формат/Информация : Audio Coding 3
Расширение режима : CM (complete main)
Параметр Endianness формата : Big
Идентификатор кодека : A_AC3
Продолжительность : 1 ч. 39 м.
Вид битрейта : Постоянный
Битрейт : 640 Кбит/сек
Каналы : 6 каналов
Расположение каналов : Front: L C R, Side: L R, LFE
Частота : 48,0 КГц
Битовая глубина : 16 бит
Метод сжатия : С потерями
Размер потока : 457 Мбайт (4%)
Язык : Russian
Default : Да
Forced : Нет
Аудио #2
Идентификатор : 3
Формат : DTS
Формат/Информация : Digital Theater Systems
Режим : 16
Параметр Endianness формата : Big
Идентификатор кодека : A_DTS
Продолжительность : 1 ч. 39 м.
Вид битрейта : Постоянный
Битрейт : 1510 Кбит/сек
Каналы : 6 каналов
Расположение каналов : Front: L C R, Side: L R, LFE
Частота : 48,0 КГц
Битовая глубина : 24 бит
Метод сжатия : С потерями
Размер потока : 1,05 Гбайт (11%)
Язык : Russian
Default : Нет
Forced : Нет
Меню
00:00:00.000 : ru:Chapter 01
00:09:02.916 : ru:Chapter 02
00:16:54.291 : ru:Chapter 03
00:25:18.333 : ru:Chapter 04
00:32:28.958 : ru:Chapter 05
00:39:30.750 : ru:Chapter 06
00:48:20.250 : ru:Chapter 07
00:56:40.041 : ru:Chapter 08
01:02:57.666 : ru:Chapter 09
01:11:52.375 : ru:Chapter 10
01:18:57.083 : ru:Chapter 11
01:27:22.125 : ru:Chapter 12
01:39:50.458 : ru:Chapter 13





Релиз от: Rip by:



   Похожие торренты   Торрент   Размер 
В этой теме нет новых непрочитанных сообщений. Василиса (2014) BDRemux 1080p от ExKinoRay | Лицензия

68 | 10

16.85 ГБ

В этой теме нет новых непрочитанных сообщений. Василиса (2014) Blu-ray 1080p | Лицензия

32 | 34

18.55 ГБ

В этой теме нет новых непрочитанных сообщений. Василиса (2014) BDRip от HQCLUB | Лицензия

261 | 16

1.45 ГБ

В этой теме нет новых непрочитанных сообщений. Василиса (2014) BDRip-AVC от HELLYWOOD | Лицензия

332 | 9

2.18 ГБ

В этой теме нет новых непрочитанных сообщений. Василиса (2014) BDRip 720p от Leonardo and Scarabey | Лицензия

1163 | 58

4.15 ГБ

В этой теме нет новых непрочитанных сообщений. Василиса (2014) WEB-DLRip-AVC от ExKinoRay | iTunes Russia

1058 | 44

2.48 ГБ

В этой теме нет новых непрочитанных сообщений. Василиса (2014) HDRip от Кинорадиомагия | КПК | Лицензия

392 | 11

378.01 МБ




Вы не можете начинать темы
Вы не можете отвечать на сообщения
Вы не можете редактировать свои сообщения
Вы не можете удалять свои сообщения
Вы не можете добавлять вложения

Перейти:  
Для Мосгорсуда, Роскомнадзора и рекламодателей: mosgorsud-torrent[собачка]yandex.ru
 Вход
ppkBB3cker v.2 © 2008-2014 @ PPK
[ Time : 0.034s | 17 Queries | GZIP : Off ]

Торрент трекер RUTOR.IN, Не можете зайти на rutor.org? Какой новый адрес рутор? Какое зеркало рутор? Не работает rutor.org и зеркала? Тогда наш торрент специально для вас. Rutor.in неофициальное зеркало rutor. В случае если у Вас заблокирован rutor или вдруг Вы не можете на него зайти, то Вы без труда сможете скачать бесплатно и без рекламы последние новинки кино, игр, сериалов и прочего у нас, на Rutor.in. Не нужно использовать прокси, чтобы зайти на рутор, достаточно воспользоваться нашим ресурсом. Все новые фильмы, игры, сериалы, книги и музыка за 2013 и 2014 годы через торрент бесплатно. Скачивайте фильмы в хорошем качестве, игры для пк, xbox, playstation без регистрации. У нас вы найдете новые Зарубежные сериалы и Русские сериалы 2013, 2014, 2015 годов. Оставайтесь с нами, качайте любимые фильмы, игры, сериалы, книги и музыку.