img image001 image001 image001 image001 image001 image001 image001 image001 image001 image001 image001 image001 image001 image001 image001

Planets Sun Sun Sun
Статистика раздачи
Автор: Nickolas3434 | Размер: 701.02 МБ | Добавлен: 01 фев 2015
Раздают: 72    Качают: 11
Скачать торрент
Скачать торрент
Описание торрента

СообщениеДобавлено: 01 фев 2015 

Информация о фильме
Название: Чего хочет женщина
Оригинальное название: Чего хочет женщина?!
Год выхода: 2006
Жанр: Комедия, приключения
Режиссёр: Александр Замятин
В ролях: Дарья Повереннова, Валентин Смирнитский, Виталий Альшанский, Вадим Андреев, Иван Витер, Денис Курышев, Александр Леньков, Артём Мазунов, Юлия Майборода, Георгий Мартиросян, Кирилл Плетнёв, Анна Пухова, Игорь Серебряный, Оксана Сташенко, Владимир Турчинский, Ян Цапник, Наталья Чернявская, Александр Числов, Анатолий Шаляпин, Борис Грачевский
О фильме: Чего хочет женщина? Чего хочет женщина актриса? Конечно, же главную роль в картине! Кто может осуществить её мечту? Конечно, же режиссёр фильма! Что ей необходимо сделать? Конечно соблазнить режиссёра! Что может помешать красотке? Только панический страх режиссёра перед её мужем боксёром-тяжеловесом!

Выпущено: Россия, Синебридж
Продолжительность: 01:27:04
Перевод: Не требуется
Файл
Качество: DVDRip
Видео: XviD, 656x368 (16:9), 988 Кбит/с, 25 кадр/с
Аудио: Русский, MP3, 48000 Гц, 128 Кбит/с, 2 канала (Стерео)

General
Complete name : Chego.hochet.jenchina.2006.DVDRip.700MB.avi
Format : AVI
Format/Info : Audio Video Interleave
File size : 701 MiB
Duration : 1h 27mn
Overall bit rate : 1 125 Kbps
Writing application : VirtualDubMod 1.5.10.3 (build 2550/release)
Writing library : VirtualDubMod build 2550/release
Copyright : rip by ivandubskoj
Video
ID : 0
Format : MPEG-4 Visual
Format profile : Advanced Simple@L5
Format settings, BVOP : 2
Format settings, QPel : No
Format settings, GMC : No warppoints
Format settings, Matrix : Custom
Codec ID : XVID
Codec ID/Hint : XviD
Duration : 1h 27mn
Bit rate : 988 Kbps
Width : 656 pixels
Height : 368 pixels
Display aspect ratio : 16:9
Frame rate : 25.000 fps
Color space : YUV
Chroma subsampling : 4:2:0
Bit depth : 8 bits
Scan type : Progressive
Compression mode : Lossy
Bits/(Pixel*Frame) : 0.164
Stream size : 615 MiB (88%)
Writing library : XviD 73
Audio
ID : 1
Format : MPEG Audio
Format version : Version 1
Format profile : Layer 3
Codec ID : 55
Codec ID/Hint : MP3
Duration : 1h 27mn
Bit rate mode : Constant
Bit rate : 128 Kbps
Channel(s) : 2 channels
Sampling rate : 48.0 KHz
Compression mode : Lossy
Stream size : 79.7 MiB (11%)
Alignment : Aligned on interleaves
Interleave, duration : 40 ms (1.00 video frame)
Interleave, preload duration : 504 ms
Writing library : LAME3.99r
Encoding settings : -m s -V 4 -q 0 -lowpass 17 -b 128




Автор рипа - ivandubskoj



   Похожие торренты   Торрент   Размер 
В этой теме нет новых непрочитанных сообщений. Хоттабыч / }{отт@бь)ч (2006) DVDRip от ivandubskoj

98 | 6

746.01 МБ

В этой теме нет новых непрочитанных сообщений. Она - мужчина / She's the Man (2006) DVDRip от ivandubskoj | D

48 | 8

2.19 ГБ

В этой теме нет новых непрочитанных сообщений. Она - мужчина / She's the Man (2006) DVDRip от ivandubskoj | D

84 | 6

1.46 ГБ

В этой теме нет новых непрочитанных сообщений. Хоттабыч / }{отт@бь)ч (2006) DVDRip от ivandubskoj

472 | 23

1.47 ГБ

В этой теме нет новых непрочитанных сообщений. CrashDay [1.1] (2006) PC | RePack от ivandubskoj

29 | 6

257.34 МБ

В этой теме нет новых непрочитанных сообщений. Quake 4 v.1.4.2 (2006) PC | RePack от ivandubskoj

600 | 24

1.99 ГБ

В этой теме нет новых непрочитанных сообщений. Чего хочет девушка / What A Girl Wants (2003) DVDRip-AVC | P2

55 | 4

1.45 ГБ




Вы не можете начинать темы
Вы не можете отвечать на сообщения
Вы не можете редактировать свои сообщения
Вы не можете удалять свои сообщения
Вы не можете добавлять вложения

Перейти:  
Для Мосгорсуда, Роскомнадзора и рекламодателей: mosgorsud-torrent[собачка]yandex.ru
 Вход
ppkBB3cker v.2 © 2008-2014 @ PPK
[ Time : 0.051s | 18 Queries | GZIP : Off ]

Торрент трекер RUTOR.IN, Не можете зайти на rutor.org? Какой новый адрес рутор? Какое зеркало рутор? Не работает rutor.org и зеркала? Тогда наш торрент специально для вас. Rutor.in неофициальное зеркало rutor. В случае если у Вас заблокирован rutor или вдруг Вы не можете на него зайти, то Вы без труда сможете скачать бесплатно и без рекламы последние новинки кино, игр, сериалов и прочего у нас, на Rutor.in. Не нужно использовать прокси, чтобы зайти на рутор, достаточно воспользоваться нашим ресурсом. Все новые фильмы, игры, сериалы, книги и музыка за 2013 и 2014 годы через торрент бесплатно. Скачивайте фильмы в хорошем качестве, игры для пк, xbox, playstation без регистрации. У нас вы найдете новые Зарубежные сериалы и Русские сериалы 2013, 2014, 2015 годов. Оставайтесь с нами, качайте любимые фильмы, игры, сериалы, книги и музыку.
cron