img image001 image001 image001 image001 image001 image001 image001 image001 image001 image001 image001 image001 image001 image001 image001

Planets Sun Sun Sun
Статистика раздачи
Автор: Nickolas3434 | Размер: 1.93 ГБ | Добавлен: 01 фев 2015
Раздают: 125    Качают: 6
Скачать торрент
Скачать торрент
Описание торрента

СообщениеДобавлено: 01 фев 2015 

Информация о фильме
Название: Оно
Год выхода: 1989
Жанр: трагикомедия, бюрократический эпос, экранизация
Режиссер: Сергей Овчаров
В ролях: Ролан Быков, Наталья Гундарева, Светлана Крючкова, Елена Санаева, Маргарита Терехова, Юрий Демич, Леонид Куравлев, Родион Нахапетов, Олег Табаков, Вячеслав Цой, Олег Штефанко, Ирина Мазуркевич, Александр Галибин, Вера Глаголева, Виктор Гоголев, Николай Муравьёв, Виктор Нестеров, Ольга Пашкова, Михаил Пахоменко, Владимир Кашпур, Александр Половцев, Виктор Казанович, Эрика Дружинина, Наталья Лабурцева, Александр Галибин, Виктор Бычков, Василий Корзун
О фильме:
Бюрократический эпос по диалогам и сюжетам М. Е. Салтыкова-Щедрина.
В основе сюжета — история уездного города Глупова от начала века до возможного будущего...
Доп. информация: ремукс записи потока *.ts в *.mkv программой VideoReDo.
На финальные титры наложена реклама-анонс (см. последний скриншот).
Страна: СССР
Студия: Ленфильм
Продолжительность: 01:54:53
Файл
Качество: DVB
Формат: MKV
Видео: AVC (H264), 720x576@785x576 (4:3), анаморф, 25 fps, 2107 kbps
Звук: MP2, 256 kbps, 2 channels, 48 kHz
Семпл

General
Unique ID : 284769608831615733774341649991716962819 (0xD63CA1B66FFDFB754AA74B4AE1460203)
Complete name : D:WorkVideoОноОно (1989).mkv
Format : Matroska
Format version : Version 2
File size : 1.93 GiB
Duration : 1h 54mn
Overall bit rate : 2 411 Kbps
Writing application : Lavf52.64.2
Writing library : Lavf52.64.2
Video
ID : 1
Format : AVC
Format/Info : Advanced Video Codec
Format profile : Main@L3.0
Format settings, CABAC : Yes
Format settings, ReFrames : 4 frames
Format settings, GOP : M=4, N=24
Codec ID : V_MPEG4/ISO/AVC
Duration : 1h 54mn
Bit rate : 2 107 Kbps
Width : 720 pixels
Height : 576 pixels
Display aspect ratio : 4:3
Original display aspect ratio : 4:3
Frame rate mode : Constant
Frame rate : 25.000 fps
Standard : PAL
Color space : YUV
Chroma subsampling : 4:2:0
Bit depth : 8 bits
Scan type : MBAFF
Scan order : Top Field First
Bits/(Pixel*Frame) : 0.203
Stream size : 1.69 GiB (87%)
Default : Yes
Forced : No
Color primaries : BT.601 PAL
Transfer characteristics : BT.470 System B, BT.470 System G
Matrix coefficients : BT.601
Color range : Limited
Audio
ID : 2
Format : MPEG Audio
Format version : Version 1
Format profile : Layer 2
Codec ID : A_MPEG/L2
Codec ID/Hint : MP2
Duration : 1h 54mn
Bit rate mode : Constant
Bit rate : 256 Kbps
Channel(s) : 2 channels
Sampling rate : 48.0 KHz
Compression mode : Lossy
Stream size : 210 MiB (11%)
Language : English
Default : Yes
Forced : No



   Похожие торренты   Торрент   Размер 
В этой теме нет новых непрочитанных сообщений. Skid Row, Ozzy Osbourne, Gorky Park, Cinderella - Moscow Music Peace Festival 1989 (1989) MP3

25 | 18

209.63 МБ

В этой теме нет новых непрочитанных сообщений. Сальвадор Дали - 1989 (1989) MP3

0 | 2

91.84 МБ

В этой теме нет новых непрочитанных сообщений. Михаил Владимиров - Best 1989-2012 (1989-2012) MP3

0 | 1

262.9 МБ

В этой теме нет новых непрочитанных сообщений. Гу-га (1989) DVD9

3 | 3

7.88 ГБ

В этой теме нет новых непрочитанных сообщений. Псы (1989) DVDRip

48 | 4

1.37 ГБ

В этой теме нет новых непрочитанных сообщений. VA - Destroika (1989) MP3

0 | 2

99.94 МБ

В этой теме нет новых непрочитанных сообщений. Псы (1989) DVDRip

42 | 5

1.47 ГБ




Вы не можете начинать темы
Вы не можете отвечать на сообщения
Вы не можете редактировать свои сообщения
Вы не можете удалять свои сообщения
Вы не можете добавлять вложения

Перейти:  
Для Мосгорсуда, Роскомнадзора и рекламодателей: mosgorsud-torrent[собачка]yandex.ru
 Вход
ppkBB3cker v.2 © 2008-2014 @ PPK
[ Time : 0.073s | 15 Queries | GZIP : Off ]

Торрент трекер RUTOR.IN, Не можете зайти на rutor.org? Какой новый адрес рутор? Какое зеркало рутор? Не работает rutor.org и зеркала? Тогда наш торрент специально для вас. Rutor.in неофициальное зеркало rutor. В случае если у Вас заблокирован rutor или вдруг Вы не можете на него зайти, то Вы без труда сможете скачать бесплатно и без рекламы последние новинки кино, игр, сериалов и прочего у нас, на Rutor.in. Не нужно использовать прокси, чтобы зайти на рутор, достаточно воспользоваться нашим ресурсом. Все новые фильмы, игры, сериалы, книги и музыка за 2013 и 2014 годы через торрент бесплатно. Скачивайте фильмы в хорошем качестве, игры для пк, xbox, playstation без регистрации. У нас вы найдете новые Зарубежные сериалы и Русские сериалы 2013, 2014, 2015 годов. Оставайтесь с нами, качайте любимые фильмы, игры, сериалы, книги и музыку.