img image001 image001 image001 image001 image001 image001 image001 image001 image001 image001 image001 image001 image001 image001 image001

Planets Sun Sun Sun
Статистика раздачи
Автор: Nickolas3434 | Размер: 2.2 ГБ | Добавлен: 01 фев 2015
Раздают: 89    Качают: 13
Скачать торрент
Скачать торрент
Описание торрента

СообщениеДобавлено: 01 фев 2015 

#77

Информация о фильме:
Название: Ехали мы, ехали...
Жанр: Комедия, музыкальный фильм
Сценарий:Владлен Бахнов, Яков Костюковский
Художники: Алексей Бобровников, Е. Гаккебуш
Режиссёр: Ефим Березин, Юрий Тимошенко
Композитор:Оскар Сандлер
Монтаж : М. Пономаренко
Оператор: Наум Слуцкий
Год: 1962
В ролях: Ефим Березин, Юрий Тимошенко, Пётр Ретвицкий, Александр Таранец, Лев Окрент, Юлия Пашковская (Тимошенко), Александр Эткин, Андрей Сова...
В основе сюжета комедии - поездка Тарапуньки и Штепселя на концерт в Москву. Героям не повезло изначально. Тринадцатый вагон, в котором они должны были прибыть в столицу, по чистой случайности забыли прицепить к составу поезда. Весельчаки отправились в Москву по шпалам своим ходом, таща за собой вагон. По дороге они развлекли немало народа, а самых способных включили в свою труппу.…
Страна: СССР || Студия: Довженко
Продолжительность: 01:13:10
Перевод: Не требуется
Кодек: MPEG-PS
Качество: DVB
Видео: MPEG Video, 720 Х 576, 4:3, 25.000 fps, 4 019 Kbp
Звук: MPEG Audio, 48.0 KHz, 192 Kbps, 2 channels
Субтитры: Отсутствуют



Данный фильм: появился не из (ниоткуда ) а был одним из первых цветных Украинских ( да и Советских фильмов ) с хорошим бюджетом, цензурой ( сквозь пальцы ) и ПОЛНОСТЬЮ профессиональными Артистами. Коллектив исполнивший в киноленте главные роли, являлся ( сливками ) главной бригады Укрконцерта. Дуэты - Народных Артистов УССР: Тимошенко-Березин ( юмористы) и - Заслуженных Артистов УССР: Пётр Ретвицкий-АлександрТаранец ( вокалисты ) были любимы десятками милионов Зрителей и, Слушателей как у нас так и - за рубежом, представляли Украину и СССР за границей и, десятки лет - не имели конкуренции.
Представленные в ( конторе ) кинопоиск ( факты ) и в малой степени не отражают реальной популярности этого замечательного Фильма - оттуда.. из СССР.
Данная кинолента, представленная Вам, в оцифрованном виде воспроизводится - в бытовых проигрывателях ( двд ). Лучшего качества в Сети - автор презентации не нашёл, другие представленные в Сети и на трекерах варианты скопированы с потокового вещания канала: РТР Планета., этот: от Дом Кино., другая плёнка, меньше дефектов и, пр.
Общее
Полное имя : ЕХАЛИ МЫ, ЕХАЛИEehaly My Ehaly 1962.mpg
Формат : MPEG-PS
Размер файла : 2,20 Гбайт
Продолжительность : 1 ч. 13 м.
Режим общего битрейта : Переменный
Общий поток : 4296 Кбит/сек
Видео
Идентификатор : 224 (0xE0)
Формат : MPEG Video
Версия формата : Version 2
Профиль формата : Main@Main
Параметр BVOP формата : Да
Параметр матрицы формата : Выборочная
Продолжительность : 1 ч. 13 м.
Вид битрейта : Переменный
Битрейт : 4019 Кбит/сек
Максимальный битрейт : 5000 Кбит/сек
Ширина : 720 пикселей
Высота : 576 пикселей
Соотношение сторон : 4:3
Частота кадров : 25,000 кадров/сек
Стандарт вещания : PAL
Цветовое пространство : YUV
Субдискретизация насыщенности : 4:2:0
Битовая глубина : 8 бит
Тип развёртки : Чересстрочная
Порядок развёртки : Верхнее поле первое
Метод сжатия : С потерями
Бит/(Пиксели*Кадры) : 0.388
Размер потока : 2,05 Гбайт (94%)
Аудио
Идентификатор : 192 (0xC0)
Формат : MPEG Audio
Версия формата : Version 1
Профиль формата : Layer 2
Продолжительность : 1 ч. 13 м.
Вид битрейта : Постоянный
Битрейт : 192 Кбит/сек
Каналы : 2 канала
Частота : 48,0 КГц
Метод сжатия : С потерями
Размер потока : 100 Мбайт (4%)








   Похожие торренты   Торрент   Размер 
В этой теме нет новых непрочитанных сообщений. Ехали мы, ехали... (1962) TVRip

10 | 5

665.88 МБ

В этой теме нет новых непрочитанных сообщений. Ехали два шофера (2001) DVD5

3 | 5

4.22 ГБ

В этой теме нет новых непрочитанных сообщений. Ехали два шофера (2001) DVDRip

18 | 5

1.37 ГБ

В этой теме нет новых непрочитанных сообщений. Ехали в трамвае Ильф и Петров (1971) DVDRip от Киномагия

18 | 16

1.42 ГБ

В этой теме нет новых непрочитанных сообщений. Мальчик с коньками (1962) DVB

6 | 1

1.02 ГБ

В этой теме нет новых непрочитанных сообщений. Три плюс два (1962) DVDRip

71 | 4

1.46 ГБ

В этой теме нет новых непрочитанных сообщений. Захватчик / The Intruder (1962) DVD-5 | Sub

2 | 2

4.14 ГБ




Вы не можете начинать темы
Вы не можете отвечать на сообщения
Вы не можете редактировать свои сообщения
Вы не можете удалять свои сообщения
Вы не можете добавлять вложения

Перейти:  
Для Мосгорсуда, Роскомнадзора и рекламодателей: mosgorsud-torrent[собачка]yandex.ru
 Вход
ppkBB3cker v.2 © 2008-2014 @ PPK
[ Time : 0.037s | 15 Queries | GZIP : On ]

Торрент трекер RUTOR.IN, Не можете зайти на rutor.org? Какой новый адрес рутор? Какое зеркало рутор? Не работает rutor.org и зеркала? Тогда наш торрент специально для вас. Rutor.in неофициальное зеркало rutor. В случае если у Вас заблокирован rutor или вдруг Вы не можете на него зайти, то Вы без труда сможете скачать бесплатно и без рекламы последние новинки кино, игр, сериалов и прочего у нас, на Rutor.in. Не нужно использовать прокси, чтобы зайти на рутор, достаточно воспользоваться нашим ресурсом. Все новые фильмы, игры, сериалы, книги и музыка за 2013 и 2014 годы через торрент бесплатно. Скачивайте фильмы в хорошем качестве, игры для пк, xbox, playstation без регистрации. У нас вы найдете новые Зарубежные сериалы и Русские сериалы 2013, 2014, 2015 годов. Оставайтесь с нами, качайте любимые фильмы, игры, сериалы, книги и музыку.