img image001 image001 image001 image001 image001 image001 image001 image001 image001 image001 image001 image001 image001 image001 image001

Planets Sun Sun Sun
Статистика раздачи
Автор: Nickolas3434 | Размер: 1.66 ГБ | Добавлен: 01 фев 2015
Раздают: 755    Качают: 10
Скачать торрент
Скачать торрент
Описание торрента

СообщениеДобавлено: 01 фев 2015 

Информация о фильме
Оригинальное название: 8 новых свиданий
Год выпуска: 2014
Жанр: Комедия
Выпущено: Россия
Режиссер: Марюс Вайсберг
В ролях: Оксана Акиньшина, Владимир Зеленский, Михаил Галустян, Полина Максимова, Сергей Шнуров, Виктор Васильев (III)
О фильме: Вера и Никита женаты 3 года. В разгар очередной радостной ссоры они обмениваются категоричными мнениями о том, какими должны быть «нормальный муж» и «хорошая жена». И на следующее утро… каждый просыпается с «идеальной половинкой». У Никиты жена-блондинка с третьим размером, которая хорошо готовит; у Веры заботливый муж-бизнесмен, сам покупающий к завтраку ее любимые круасаны. С кем жить лучше, с любимым или идеальным? Будьте осторожны с желаниями — иногда они сбываются!

Файл
Качество: WEB-DLRip (AVC)
Видео: MPEG-4 AVC, 2444 Кбит/с, 1024x576, 24 кадр/с
Аудио: AC3, 6 ch, 384 Кбит/с
Размер: 1.66 ГБ
Продолжительность: 01:26:48
Язык: Русский
Озвучивание - (iTunes Russia)
Сохранены оригинальные чаптеры как на исходном WEB-DL.
x264 [info]: frame I:1794 Avg QP:13.26 size:103362
x264 [info]: frame P:33110 Avg QP:17.53 size: 24813
x264 [info]: frame B:85938 Avg QP:21.00 size: 6159
x264 [info]: consecutive B-frames: 3.2% 5.9% 7.8% 74.5% 3.6% 3.9% 0.4% 0.4% 0.1% 0.3%
x264 [info]: mb I I16..4: 10.6% 56.7% 32.7%
x264 [info]: mb P I16..4: 1.1% 10.8% 1.6% P16..4: 30.5% 33.1% 10.8% 4.0% 0.7% skip: 7.3%
x264 [info]: mb B I16..4: 0.1% 1.3% 0.2% B16..8: 30.8% 17.0% 2.6% direct: 3.9% skip:44.2% L0:37.3% L1:46.8% BI:15.9%
x264 [info]: 8x8 transform intra:75.1% inter:48.9%
x264 [info]: direct mvs spatial:97.7% temporal:2.3%
x264 [info]: coded y,uvDC,uvAC intra: 89.6% 86.9% 66.1% inter: 18.4% 15.8% 8.2%
x264 [info]: i16 v,h,dc,p: 18% 9% 9% 64%
x264 [info]: i8 v,h,dc,ddl,ddr,vr,hd,vl,hu: 12% 10% 5% 9% 12% 13% 12% 13% 13%
x264 [info]: i4 v,h,dc,ddl,ddr,vr,hd,vl,hu: 14% 11% 5% 8% 14% 13% 12% 11% 12%
x264 [info]: i8c dc,h,v,p: 39% 22% 20% 19%
x264 [info]: Weighted P-Frames: Y:1.8% UV:0.9%
x264 [info]: ref P L0: 59.2% 8.7% 16.0% 5.3% 3.7% 2.5% 2.0% 1.4% 1.2% 0.1% 0.0%
x264 [info]: ref B L0: 85.9% 7.4% 2.8% 1.7% 0.9% 0.6% 0.4% 0.3%
x264 [info]: ref B L1: 96.6% 3.4%
x264 [info]: kb/s:2440.93

Общее
Уникальный идентификатор : 205166217550076591695807282456103739413 (0x9A5993818EA4178E9A41A5E8BD53E015)
Полное имя : D:Загрузки8.Nivih.Svidanij.2014.x264.WEB-DLRip.(AVC).ExKinoRay.mkv
Формат : Matroska
Версия формата : Version 2
Размер файла : 1,66 Гбайт
Продолжительность : 1 ч. 23 м.
Общий поток : 2827 Кбит/сек
Название фильма : 8 новых свиданий.2014.Rip by: ollan
Дата кодирования : UTC 2015-02-01 12:03:38
Программа кодирования : mkvmerge v5.6.0 ('Kenya Kane') built on May 27 2012 16:44:04
Библиотека кодирования : libebml v1.2.3 + libmatroska v1.3.0
Видео
Идентификатор : 1
Формат : AVC
Формат/Информация : Advanced Video Codec
Профиль формата : High@L4.1
Параметр CABAC формата : Да
Параметр ReFrames формата : 9 кадров
Идентификатор кодека : V_MPEG4/ISO/AVC
Продолжительность : 1 ч. 23 м.
Битрейт : 2444 Кбит/сек
Ширина : 1024 пикселя
Высота : 576 пикселей
Соотношение сторон : 16:9
Режим частоты кадров : Постоянный
Частота кадров : 24,000 кадра/сек
Цветовое пространство : YUV
Субдискретизация насыщенности : 4:2:0
Битовая глубина : 8 бит
Тип развёртки : Прогрессивная
Бит/(Пиксели*Кадры) : 0.173
Размер потока : 1,40 Гбайт (84%)
Библиотека кодирования : x264 core 125 r2200 999b753
Настройки программы : cabac=1 / ref=9 / deblock=1:-3:-3 / analyse=0x3:0x133 / me=umh / subme=11 / psy=1 / psy_rd=1.00:0.10 / mixed_ref=1 / me_range=32 / chroma_me=1 / trellis=2 / 8x8dct=1 / cqm=0 / deadzone=21,11 / fast_pskip=0 / chroma_qp_offset=-3 / threads=12 / lookahead_threads=2 / sliced_threads=0 / nr=0 / decimate=0 / interlaced=0 / bluray_compat=0 / constrained_intra=0 / bframes=9 / b_pyramid=2 / b_adapt=2 / b_bias=0 / direct=3 / weightb=1 / open_gop=0 / weightp=2 / keyint=240 / keyint_min=23 / scenecut=40 / intra_refresh=0 / rc_lookahead=40 / rc=2pass / mbtree=1 / bitrate=2444 / ratetol=1.0 / qcomp=0.60 / qpmin=0 / qpmax=69 / qpstep=4 / cplxblur=20.0 / qblur=0.5 / ip_ratio=1.40 / aq=1:1.00
Язык : Russian
Default : Да
Forced : Нет
Аудио
Идентификатор : 2
Формат : AC-3
Формат/Информация : Audio Coding 3
Расширение режима : CM (complete main)
Параметр Endianness формата : Big
Идентификатор кодека : A_AC3
Продолжительность : 1 ч. 23 м.
Вид битрейта : Постоянный
Битрейт : 384 Кбит/сек
Каналы : 6 каналов
Расположение каналов : Front: L C R, Side: L R, LFE
Частота : 48,0 КГц
Битовая глубина : 16 бит
Метод сжатия : С потерями
Размер потока : 230 Мбайт (14%)
Заголовок : iTunes Russia
Язык : Russian
Default : Да
Forced : Нет
Меню
00:00:00.000 : ru:Chapter 01
00:06:40.000 : ru:Chapter 02
00:10:27.000 : ru:Chapter 03
00:14:24.000 : ru:Chapter 04
00:18:23.000 : ru:Chapter 05
00:25:25.000 : ru:Chapter 06
00:30:29.000 : ru:Chapter 07
00:35:47.000 : ru:Chapter 08
00:41:37.000 : ru:Chapter 09
00:47:12.000 : ru:Chapter 10
00:52:54.000 : ru:Chapter 11
00:59:24.000 : ru:Chapter 12
01:04:57.000 : ru:Chapter 13
01:10:01.000 : ru:Chapter 14
01:15:27.000 : ru:Chapter 15
01:19:00.000 : ru:Chapter 16





Релиз от: Rip by:



   Похожие торренты   Торрент   Размер 
В этой теме нет новых непрочитанных сообщений. 8 новых свиданий (2014) WEB-DLRip-AVC от ExKinoRay | iTunes Russia

91 | 5

743.7 МБ

В этой теме нет новых непрочитанных сообщений. 8 лучших свиданий (2016) WEB-DLRip-AVC от ExKinoRay | iTunes Russia

733 | 19

1.8 ГБ

В этой теме нет новых непрочитанных сообщений. 8 новых свиданий (2015) WEB-DLRip от New-Team | iTunes Russia

1888 | 63

745.32 МБ

В этой теме нет новых непрочитанных сообщений. 8 новых свиданий (2015) WEB-DLRip от New-Team | iTunes Russia

2178 | 79

1.45 ГБ

В этой теме нет новых непрочитанных сообщений. Василиса (2014) WEB-DLRip-AVC от ExKinoRay | iTunes Russia

1058 | 44

2.48 ГБ

В этой теме нет новых непрочитанных сообщений. Кавказская пленница! (2014) WEB-DLRip-AVC от ExKinoRay | iTunes Russia

50 | 1

743.49 МБ

В этой теме нет новых непрочитанных сообщений. Три богатыря: Ход конем (2014) WEB-DLRip-AVC от ExKinoRay | iTunes Russia

3051 | 1217

1.24 ГБ




Вы не можете начинать темы
Вы не можете отвечать на сообщения
Вы не можете редактировать свои сообщения
Вы не можете удалять свои сообщения
Вы не можете добавлять вложения

Перейти:  
Для Мосгорсуда, Роскомнадзора и рекламодателей: mosgorsud-torrent[собачка]yandex.ru
 Вход
ppkBB3cker v.2 © 2008-2014 @ PPK
[ Time : 0.042s | 17 Queries | GZIP : Off ]

cron