img image001 image001 image001 image001 image001 image001 image001 image001 image001 image001 image001 image001 image001 image001 image001

Planets Sun Sun Sun
Статистика раздачи
Автор: Nickolas3434 | Размер: 743.7 МБ | Добавлен: 02 фев 2015
Раздают: 91    Качают: 5
Скачать торрент
Скачать торрент
Описание торрента

СообщениеДобавлено: 02 фев 2015 

Информация о фильме
Оригинальное название: 8 новых свиданий
Год выпуска: 2014
Жанр: Комедия
Выпущено: Россия
Режиссер: Марюс Вайсберг
В ролях: Оксана Акиньшина, Владимир Зеленский, Михаил Галустян, Полина Максимова, Сергей Шнуров, Виктор Васильев (III)
О фильме: Вера и Никита женаты 3 года. В разгар очередной радостной ссоры они обмениваются категоричными мнениями о том, какими должны быть «нормальный муж» и «хорошая жена». И на следующее утро… каждый просыпается с «идеальной половинкой». У Никиты жена-блондинка с третьим размером, которая хорошо готовит; у Веры заботливый муж-бизнесмен, сам покупающий к завтраку ее любимые круасаны. С кем жить лучше, с любимым или идеальным? Будьте осторожны с желаниями — иногда они сбываются!

Файл
Качество: WEB-DLRip (AVC)
Видео: MPEG-4 AVC, 1047 Кбит/с, 720x404
Аудио: AC3, 2 ch, 192 Кбит/с
Размер: 744 МБ
Продолжительность: 01:26:48
Язык: Русский
Озвучивание - (iTunes Russia)
Сохранены оригинальные чаптеры как на исходном WEB-DL.
x264 [info]: frame I:1844 Avg QP:16.87 size: 40089
x264 [info]: frame P:34488 Avg QP:19.19 size: 10373
x264 [info]: frame B:84510 Avg QP:21.12 size: 2677
x264 [info]: consecutive B-frames: 4.4% 8.8% 7.2% 67.4% 4.1% 5.8% 0.5% 0.4% 0.1% 1.2%
x264 [info]: mb I I16..4: 8.0% 62.2% 29.8%
x264 [info]: mb P I16..4: 2.2% 11.9% 2.5% P16..4: 44.3% 16.9% 13.9% 0.7% 0.2% skip: 7.4%
x264 [info]: mb B I16..4: 0.3% 1.2% 0.3% B16..8: 34.4% 8.4% 2.1% direct: 3.5% skip:49.8% L0:35.8% L1:47.5% BI:16.7%
x264 [info]: 8x8 transform intra:69.2% inter:57.6%
x264 [info]: direct mvs spatial:95.7% temporal:4.3%
x264 [info]: coded y,uvDC,uvAC intra: 75.7% 81.4% 54.4% inter: 16.5% 20.4% 8.6%
x264 [info]: i16 v,h,dc,p: 34% 17% 9% 40%
x264 [info]: i8 v,h,dc,ddl,ddr,vr,hd,vl,hu: 21% 12% 9% 7% 9% 11% 10% 11% 11%
x264 [info]: i4 v,h,dc,ddl,ddr,vr,hd,vl,hu: 30% 10% 6% 7% 10% 11% 9% 8% 9%
x264 [info]: i8c dc,h,v,p: 38% 24% 24% 14%
x264 [info]: Weighted P-Frames: Y:5.6% UV:3.1%
x264 [info]: ref P L0: 59.7% 11.4% 14.0% 4.6% 3.3% 2.5% 2.0% 1.2% 1.2% 0.1% 0.0%
x264 [info]: ref B L0: 84.6% 8.1% 3.4% 1.5% 1.0% 0.8% 0.5% 0.2%
x264 [info]: ref B L1: 95.9% 4.1%
x264 [info]: kb/s:1045.32
x264 [total]: encoded 120842 frames, 7.31 fps, 1045.32 kb/s
Общее
Уникальный идентификатор : 224299565460587947626659994524738005135 (0xA8BE8663FFAB114B8B9D46CA281E288F)
Полное имя : D:Видео8 новых свиданий.2014.O.WEB-DL -Rip(AVC) by Vovan366(ExKinoRay).mkv
Формат : Matroska
Версия формата : Version 4 / Version 2
Размер файла : 744 Мбайт
Продолжительность : 1 ч. 23 м.
Общий поток : 1239 Кбит/сек
Название фильма : 8 новых свиданий.2014.O.WEB-DL -Rip(AVC) by Vovan366(ExKinoRay)
Дата кодирования : UTC 2015-02-01 11:11:36
Программа кодирования : mkvmerge v7.5.0 ('Glass Culture') 64bit built on Jan 4 2015 16:48:44
Библиотека кодирования : libebml v1.3.1 + libmatroska v1.4.2
DURATION : 01:23:55.104000000
NUMBER_OF_FRAMES : 157347
NUMBER_OF_BYTES : 120842496
_STATISTICS_WRITING_APP : mkvmerge v7.5.0 ('Glass Culture') 64bit built on Jan 4 2015 16:48:44
_STATISTICS_WRITING_DATE_UTC : 2015-02-01 11:11:36
_STATISTICS_TAGS : BPS DURATION NUMBER_OF_FRAMES NUMBER_OF_BYTES
Видео
Идентификатор : 1
Формат : AVC
Формат/Информация : Advanced Video Codec
Профиль формата : High@L3.2
Параметр CABAC формата : Да
Параметр ReFrames формата : 9 кадров
Идентификатор кодека : V_MPEG4/ISO/AVC
Продолжительность : 1 ч. 23 м.
Битрейт : 1047 Кбит/сек
Ширина : 720 пикселей
Высота : 404 пикселя
Соотношение сторон : 16:9
Режим частоты кадров : Постоянный
Частота кадров : 24,000 кадра/сек
Цветовое пространство : YUV
Субдискретизация насыщенности : 4:2:0
Битовая глубина : 8 бит
Тип развёртки : Прогрессивная
Бит/(Пиксели*Кадры) : 0.150
Размер потока : 614 Мбайт (83%)
Заголовок : by Vovan366(ExKinoRay)
Библиотека кодирования : x264 core 130 r2273 b3065e6
Настройки программы : cabac=1 / ref=9 / deblock=1:-3:-3 / analyse=0x3:0x133 / me=umh / subme=9 / psy=1 / psy_rd=1.00:0.15 / mixed_ref=1 / me_range=32 / chroma_me=1 / trellis=2 / 8x8dct=1 / cqm=0 / deadzone=21,11 / fast_pskip=0 / chroma_qp_offset=-3 / threads=6 / lookahead_threads=1 / sliced_threads=0 / nr=0 / decimate=0 / interlaced=0 / bluray_compat=0 / constrained_intra=0 / bframes=9 / b_pyramid=2 / b_adapt=2 / b_bias=0 / direct=3 / weightb=1 / open_gop=0 / weightp=2 / keyint=240 / keyint_min=23 / scenecut=40 / intra_refresh=0 / rc=2pass / mbtree=0 / bitrate=1047 / ratetol=1.0 / qcomp=0.60 / qpmin=0 / qpmax=69 / qpstep=4 / cplxblur=20.0 / qblur=0.5 / ip_ratio=1.40 / pb_ratio=1.30 / aq=1:1.00
Default : Да
Forced : Нет
Аудио
Идентификатор : 2
Формат : AC-3
Формат/Информация : Audio Coding 3
Расширение режима : CM (complete main)
Параметр Endianness формата : Big
Идентификатор кодека : A_AC3
Продолжительность : 1 ч. 23 м.
Вид битрейта : Постоянный
Битрейт : 192 Кбит/сек
Каналы : 2 канала
Расположение каналов : Front: L R
Частота : 48,0 КГц
Битовая глубина : 16 бит
Метод сжатия : С потерями
Размер потока : 115 Мбайт (15%)
Язык : Russian
Default : Да
Forced : Нет
Меню
00:00:00.000 : en:Глава 1
00:06:40.000 : en:Глава 2
00:10:27.000 : en:Глава 3
00:14:24.000 : en:Глава 4
00:18:23.000 : en:Глава 5
00:25:25.000 : en:Глава 6
00:30:39.000 : en:Глава 7
00:35:47.000 : en:Глава 8
00:41:37.000 : en:Глава 9
00:47:12.000 : en:Глава 10
00:52:54.000 : en:Глава 11
00:59:24.000 : en:Глава 12
01:04:57.000 : en:Глава 13
01:10:01.000 : en:Глава 14
01:15:27.000 : en:Глава 15
01:19:00.000 : en:Глава 16





Релиз от:
Rip by: Vovan366



   Похожие торренты   Торрент   Размер 
В этой теме нет новых непрочитанных сообщений. 8 новых свиданий (2014) WEB-DLRip-AVC от ExKinoRay | iTunes Russia

755 | 10

1.66 ГБ

В этой теме нет новых непрочитанных сообщений. 8 лучших свиданий (2016) WEB-DLRip-AVC от ExKinoRay | iTunes Russia

1123 | 27

1.8 ГБ

В этой теме нет новых непрочитанных сообщений. 8 новых свиданий (2015) WEB-DLRip от New-Team | iTunes Russia

1888 | 63

745.32 МБ

В этой теме нет новых непрочитанных сообщений. 8 новых свиданий (2015) WEB-DLRip от New-Team | iTunes Russia

2178 | 79

1.45 ГБ

В этой теме нет новых непрочитанных сообщений. Василиса (2014) WEB-DLRip-AVC от ExKinoRay | iTunes Russia

1058 | 44

2.48 ГБ

В этой теме нет новых непрочитанных сообщений. Кавказская пленница! (2014) WEB-DLRip-AVC от ExKinoRay | iTunes Russia

86 | 2

743.49 МБ

В этой теме нет новых непрочитанных сообщений. Любовь напрокат (2014) WEB-DLRip-AVC от ExKinoRay | iTunes Russia

1544 | 31

1.97 ГБ




Вы не можете начинать темы
Вы не можете отвечать на сообщения
Вы не можете редактировать свои сообщения
Вы не можете удалять свои сообщения
Вы не можете добавлять вложения

Перейти:  
Для Мосгорсуда, Роскомнадзора и рекламодателей: mosgorsud-torrent[собачка]yandex.ru
 Вход
ppkBB3cker v.2 © 2008-2014 @ PPK
[ Time : 1.525s | 17 Queries | GZIP : Off ]

Торрент трекер RUTOR.IN, Не можете зайти на rutor.org? Какой новый адрес рутор? Какое зеркало рутор? Не работает rutor.org и зеркала? Тогда наш торрент специально для вас. Rutor.in неофициальное зеркало rutor. В случае если у Вас заблокирован rutor или вдруг Вы не можете на него зайти, то Вы без труда сможете скачать бесплатно и без рекламы последние новинки кино, игр, сериалов и прочего у нас, на Rutor.in. Не нужно использовать прокси, чтобы зайти на рутор, достаточно воспользоваться нашим ресурсом. Все новые фильмы, игры, сериалы, книги и музыка за 2013 и 2014 годы через торрент бесплатно. Скачивайте фильмы в хорошем качестве, игры для пк, xbox, playstation без регистрации. У нас вы найдете новые Зарубежные сериалы и Русские сериалы 2013, 2014, 2015 годов. Оставайтесь с нами, качайте любимые фильмы, игры, сериалы, книги и музыку.