img image001 image001 image001 image001 image001 image001 image001 image001 image001 image001 image001 image001 image001 image001 image001

Planets Sun Sun Sun
Статистика раздачи
Автор: Nickolas3434 | Размер: 1.37 ГБ | Добавлен: 02 фев 2015
Раздают: 161    Качают: 39
Скачать торрент
Скачать торрент
Описание торрента

СообщениеДобавлено: 02 фев 2015 

Оригинальное название: Кубанские казаки
Год выпуска: 1949
Жанр: Музыкальный, комедия
Режиссер: Иван Пырьев
В ролях: Сергей Лукьянов, Марина Ладынина, Александр Хвыля, Владлен Давыдов, Владимир Володин, Екатерина Савинова, Андрей Петров, Владимир Дорофеев, Елена Савицкая, Валентина Телегина, Сергей Блинников, Михаил Пуговкин, Юрий Любимов, Борис Андреев, Виктор Бубнов, Сергей Ильд, Владимир Лепко, Клара Лучко, Константин Сорокин, Георгий Светлани, Елена Вольская, Александра Данилова, Елизавета Кузюрина, Виктор Ключарев, Евгений Зосимов, Зоя Толбузина
Описание: На осенней межколхозной ярмарке лихой коневод Николай сватается к передовой колхознице Даше Шелест. Влюбленным, работающим в разных хозяйствах, предстоит преодолеть сопротивление своих руководителей, не желающих лишаться отличных работников. Председатель колхоза "Красный партизан", где живёт Даша, Гордей Ворон давно любит председателя колхоза "Заветы Ильича", где живёт Николай, Галину Пересветову, но никак не может признаться ей в своих чувствах. Приходится Галине объясниться первой. Обе пары начинают готовиться к свадьбе….
Выпущено: СССР, Мосфильм
Продолжительность: 01:44:24
Язык: Русский
Качество: HDTVRip
Видео: XviD, 1677 Кбит/с, 720x528
Аудио rus: MP3, 2 ch, 192 Кбит/с
Полное имя : E:Кубанские казаки.1949.tahiy.avi
Формат : AVI
Формат/Информация : Audio Video Interleave
Размер файла : 1,37 Гбайт
Продолжительность : 1 ч. 44 м.
Общий поток : 1878 Кбит/сек
Название фильма : Кубанские казаки.1949.tahiy
Программа кодирования : VirtualDubMod 1.5.10.3 | www.virtualdub-fr.org || (build 2550/release)
Видео
Идентификатор : 0
Формат : MPEG-4 Visual
Профиль формата : Advanced Simple@L5
Параметр BVOP формата : 1
Параметр QPel формата : Нет
Параметр GMC формата : Без точки перехода
Параметр матрицы формата : Default (MPEG)
Идентификатор кодека : XVID
Идентификатор кодека/Подсказка : XviD
Продолжительность : 1 ч. 44 м.
Битрейт : 1677 Кбит/сек
Ширина : 720 пикселей
Высота : 528 пикселей
Соотношение сторон : 4:3
Частота кадров : 25,000 кадров/сек
Цветовое пространство : YUV
Субдискретизация насыщенности : 4:2:0
Битовая глубина : 8 бит
Тип развёртки : Прогрессивная
Метод сжатия : С потерями
Бит/(Пиксели*Кадры) : 0.176
Размер потока : 1,22 Гбайт (89%)
Библиотека кодирования : XviD 73
Аудио
Идентификатор : 1
Формат : MPEG Audio
Версия формата : Version 1
Профиль формата : Layer 3
Режим : Joint stereo
Расширение режима : MS Stereo
Идентификатор кодека : 55
Идентификатор кодека/Подсказка : MP3
Продолжительность : 1 ч. 44 м.
Вид битрейта : Постоянный
Битрейт : 192 Кбит/сек
Каналы : 2 канала
Частота : 48,0 КГц
Метод сжатия : С потерями
Размер потока : 143 Мбайт (10%)
Выравнивание : Соединение по промежуткам
Продолжительность промежутка : 40 мс. (1,00 видеокадр)
Время предзагрузки промежутка : 504 мс.
Библиотека кодирования : LAME3.99r
Настройки программы : -m j -V 4 -q 2 -lowpass 18.6 -b 192
http://screenshotcomparison.com/comparison/78485 - • значительном увеличении полезной площади видеокадра





   Похожие торренты   Торрент   Размер 
В этой теме нет новых непрочитанных сообщений. Кубанские казаки (1949) HDTVRip от New-Team

58 | 21

745.36 МБ

В этой теме нет новых непрочитанных сообщений. Кубанские казаки (1949) HDTVRip от New-Team

137 | 17

1.46 ГБ

В этой теме нет новых непрочитанных сообщений. Кубанские казаки (1949) HDTVRip-AVC от New-Team

199 | 32

1.46 ГБ

В этой теме нет новых непрочитанных сообщений. Кубанские казаки (1949) HDTVRip-AVC от ExKinoRay

49 | 17

3.75 ГБ

В этой теме нет новых непрочитанных сообщений. Кубанские казаки (1949) DVDRip от KinoZalSat

269 | 20

1.37 ГБ

В этой теме нет новых непрочитанных сообщений. Кубанские казаки (1949) HDTV 1080i от kuzmichm2196

99 | 216

11.97 ГБ

В этой теме нет новых непрочитанных сообщений. Казаки [01 из 16] (2016) HDTVRip от Files-x

263 | 122

4.29 ГБ




Вы не можете начинать темы
Вы не можете отвечать на сообщения
Вы не можете редактировать свои сообщения
Вы не можете удалять свои сообщения
Вы не можете добавлять вложения

Перейти:  
Для Мосгорсуда, Роскомнадзора и рекламодателей: mosgorsud-torrent[собачка]yandex.ru
 Вход
ppkBB3cker v.2 © 2008-2014 @ PPK
[ Time : 0.053s | 15 Queries | GZIP : Off ]

Торрент трекер RUTOR.IN, Не можете зайти на rutor.org? Какой новый адрес рутор? Какое зеркало рутор? Не работает rutor.org и зеркала? Тогда наш торрент специально для вас. Rutor.in неофициальное зеркало rutor. В случае если у Вас заблокирован rutor или вдруг Вы не можете на него зайти, то Вы без труда сможете скачать бесплатно и без рекламы последние новинки кино, игр, сериалов и прочего у нас, на Rutor.in. Не нужно использовать прокси, чтобы зайти на рутор, достаточно воспользоваться нашим ресурсом. Все новые фильмы, игры, сериалы, книги и музыка за 2013 и 2014 годы через торрент бесплатно. Скачивайте фильмы в хорошем качестве, игры для пк, xbox, playstation без регистрации. У нас вы найдете новые Зарубежные сериалы и Русские сериалы 2013, 2014, 2015 годов. Оставайтесь с нами, качайте любимые фильмы, игры, сериалы, книги и музыку.