img image001 image001 image001 image001 image001 image001 image001 image001 image001 image001 image001 image001 image001 image001 image001

Planets Sun Sun Sun
Статистика раздачи
Автор: Nickolas3434 | Размер: 2.37 ГБ | Добавлен: 03 фев 2015
Раздают: 417    Качают: 48
Скачать торрент
Скачать торрент
Описание торрента

СообщениеДобавлено: 03 фев 2015 

Год выпуска: 2014
Страна: Россия
Жанр: история, мелодрама
Продолжительность: 01:39:50
Перевод: Оригинал (русский)
Режиссер: Антон Сиверс
В ролях: Светлана Ходченкова, Дмитрий Соломыкин, Жером Кузан, Кристина Кузьмина, Игорь Черневич, Андрей Ильин, Ирина Розанова, Илья Носков, Андрей Носков, Жоанн Морио, Оливье Сиу, Сесиль Мари Жендр, Ксения Разина, Коля Спиридонов, Фёдор Никитин, Валерий Немешаев, Юрий Кузнецов, Алексей Барабаш, Владимир Матвеев, Юрий Батурин
Описание: Провинциальная Россия начала XIX века. Гусар Иван так сильно любит дворовую девку Василису, крепостную своего соседа, что обещает выкупить ее, дать ей вольную и жениться на ней. Девушка отвечает ему взаимностью, но до конца не доверяет. Когда Василиса видит Ивана с невестой-дворянкой, навязанной ему матерью, она от обиды отвечает на ухаживания сельского старосты и выходит за него замуж. Так и не женившийся Иван уезжает в полк и вскоре отправляется на войну с Наполеоном. Когда французы доходят до его родных мест, они убивают мужа Василисы, и разъяренная женщина поднимает односельчан на партизанское восстание.

Видео кодек: MPEG-4 AVC
Качество: BDRip 720p
Параметры Видео: 1280x720, 24.000 fps; ~3 231 kbps avg
Параметры Звука: 48.0 KHz, AAC, ~165.00 kbps avg, 2ch
Формат: mp4
Релиз:


General
Complete name : E:Vasil1sa.2014.O.BDRip.720p_KinoGadget.mp4
Format : MPEG-4
Format profile : Base Media
Codec ID : isom
File size : 2.37 GiB
Duration : 1h 39mn
Overall bit rate mode : Variable
Overall bit rate : 3 404 Kbps
Movie name : Василиса
Performer : Антон Сиверс
Genre : Historical, Romance
ContentType : Short Film
Recorded date : 2014
Encoded date : UTC 2015-02-02 15:07:48
Tagged date : UTC 2015-02-02 15:18:28
Cover : Yes
LongDeion : Он дворянин, а она — крепостная крестьянка… Им не суждено быть вместе. Возможно, так и закончилась бы эта любовная история, если бы не ВОЙНА. Наполеон вторгся в пределы Российской Империи, и этот день изменил привычный уклад и сословные предрассудки. Мир больше никогда не станет прежним. Война пишет новую историю любви.
HDVideo : Yes
Video
ID : 1
Format : AVC
Format/Info : Advanced Video Codec
Format profile : High@L4.1
Format settings, CABAC : Yes
Format settings, ReFrames : 9 frames
Codec ID : avc1
Codec ID/Info : Advanced Video Coding
Duration : 1h 39mn
Bit rate : 3 231 Kbps
Maximum bit rate : 17.8 Mbps
Width : 1 280 pixels
Height : 720 pixels
Display aspect ratio : 16:9
Frame rate mode : Constant
Frame rate : 24.000 fps
Color space : YUV
Chroma subsampling : 4:2:0
Bit depth : 8 bits
Scan type : Progressive
Bits/(Pixel*Frame) : 0.146
Stream size : 2.25 GiB (95%)
Writing library : x264 core 144 r2525 40bb568
Encoding settings : cabac=1 / ref=9 / deblock=1:-1:-1 / analyse=0x3:0x133 / me=umh / subme=9 / psy=1 / psy_rd=1.00:0.20 / mixed_ref=1 / me_range=24 / chroma_me=1 / trellis=2 / 8x8dct=1 / cqm=0 / deadzone=21,11 / fast_pskip=1 / chroma_qp_offset=-3 / threads=3 / lookahead_threads=1 / sliced_threads=0 / nr=0 / decimate=1 / interlaced=0 / bluray_compat=0 / constrained_intra=0 / bframes=8 / b_pyramid=2 / b_adapt=2 / b_bias=0 / direct=3 / weightb=1 / open_gop=0 / weightp=2 / keyint=240 / keyint_min=24 / scenecut=40 / intra_refresh=0 / rc_lookahead=60 / rc=crf / mbtree=1 / crf=21.0 / qcomp=0.60 / qpmin=0 / qpmax=69 / qpstep=4 / ip_ratio=1.40 / aq=2:1.00
Encoded date : UTC 2015-02-02 04:40:10
Tagged date : UTC 2015-02-02 15:10:10
Audio
ID : 2
Format : AAC
Format/Info : Advanced Audio Codec
Format profile : LC
Codec ID : 40
Duration : 1h 39mn
Duration_FirstFrame : 64ms
Bit rate mode : Variable
Bit rate : 165 Kbps
Maximum bit rate : 221 Kbps
Channel count : 2 channels
Channel positions : Front: L R
Sampling rate : 48.0 KHz
Compression mode : Lossy
Stream size : 118 MiB (5%)
Language : Russian
Tagged date : UTC 2015-02-02 15:10:10





   Похожие торренты   Торрент   Размер 
В этой теме нет новых непрочитанных сообщений. Рио 2 / Rio 2 (2014) BDRip 720p | KinoGadget | iPad

306 | 22

1.53 ГБ

В этой теме нет новых непрочитанных сообщений. Заложница 3 / Taken 3 (2014) BDRip 720p | KinoGadget | iPad

94 | 3

2.08 ГБ

В этой теме нет новых непрочитанных сообщений. 22 минуты (2014) BDRip 720p от KinoGadget | iPad

131 | 14

1.44 ГБ

В этой теме нет новых непрочитанных сообщений. Левиафан (2014) BDRip 720p | KinoGadget | iPad

452 | 16

1.67 ГБ

В этой теме нет новых непрочитанных сообщений. Топ-5 / Top Five (2014) BDRip 720p | KinoGadget and KinoXa | iPad

49 | 3

1.77 ГБ

В этой теме нет новых непрочитанных сообщений. Мамы 3 (2014) BDRip 720p | KinoGadget | iPad

561 | 12

1.44 ГБ

В этой теме нет новых непрочитанных сообщений. Общак / The Drop (2014) BDRip 720p | KinoGadget | iPad

285 | 16

1.47 ГБ




Вы не можете начинать темы
Вы не можете отвечать на сообщения
Вы не можете редактировать свои сообщения
Вы не можете удалять свои сообщения
Вы не можете добавлять вложения

Перейти:  
Для Мосгорсуда, Роскомнадзора и рекламодателей: mosgorsud-torrent[собачка]yandex.ru
 Вход
ppkBB3cker v.2 © 2008-2014 @ PPK
[ Time : 0.050s | 15 Queries | GZIP : Off ]

Торрент трекер RUTOR.IN, Не можете зайти на rutor.org? Какой новый адрес рутор? Какое зеркало рутор? Не работает rutor.org и зеркала? Тогда наш торрент специально для вас. Rutor.in неофициальное зеркало rutor. В случае если у Вас заблокирован rutor или вдруг Вы не можете на него зайти, то Вы без труда сможете скачать бесплатно и без рекламы последние новинки кино, игр, сериалов и прочего у нас, на Rutor.in. Не нужно использовать прокси, чтобы зайти на рутор, достаточно воспользоваться нашим ресурсом. Все новые фильмы, игры, сериалы, книги и музыка за 2013 и 2014 годы через торрент бесплатно. Скачивайте фильмы в хорошем качестве, игры для пк, xbox, playstation без регистрации. У нас вы найдете новые Зарубежные сериалы и Русские сериалы 2013, 2014, 2015 годов. Оставайтесь с нами, качайте любимые фильмы, игры, сериалы, книги и музыку.