img image001 image001 image001 image001 image001 image001 image001 image001 image001 image001 image001 image001 image001 image001 image001

Planets Sun Sun Sun
Статистика раздачи
Автор: Nickolas3434 | Размер: 14.21 ГБ | Добавлен: 03 фев 2015
Раздают: 116    Качают: 33
Скачать торрент
Скачать торрент
Описание торрента

СообщениеДобавлено: 03 фев 2015 

Информация о фильме
Оригинальное название: 8 первых свиданий
Год выхода: 2012
Жанр: Фэнтези, комедия, мелодрама
Режиссёр: Дэвид Додсон, Александр Маляревский
В ролях: Оксана Акиньшина, Владимир Зеленский, Денис Никифоров, Екатерина Варнава, Сабина Ахмедова, Ильдар Аллабирдин, Сергей Барковский, Наталья Иохвидова, Игорь Жижикин, Елена Кондулайнен, Евгений Кошевой, Мария Кравцова, Александр Маляревский, Костя Наконечный, Сосо Павлиашвили, Мария Петровская, Андрей Щукин, Виктор Васильев, Наталья Вихрян, Олеся Железняк, Дамир Коломийченко, Юлия Беретта
О фильме: Вера телезвезда, ее жених Константин — профессиональный теннисист. Они собираются пожениться. Никита врач-ветеринар и красавица-хирург Илона также спешат оформить отношения. Но одно прекрасное утро разрушает все планы. После веселого вечера Вера просыпается в одной постели с Никитой. Решив, что это последствия слишком бурной вечеринки, молодые люди разъезжаются в разные стороны. Но следующим днем все повторяется — Никита и Вера снова вместе, хотя каждый хорошо помнит, как они засыпали дома — каждый у себя… Так происходит всю последующую неделю. Какие-то таинственные силы устраивают эти неожиданные «свидания», кто-то хочет разрушить их браки, а может быть просто доказать, что они созданы друг для друга?

Выпущено: Россия, Горад, Квартал-95
Продолжительность: 01:26:33
Перевод: Не требуется
Файл
Качество: Blu-ray Remux (1080p) [Исходник: Blu-ray RUS 1080p MPEG-2 DD5.1]
Видео: MPEG-2, 22,4 Мбит/с, 1920x1080 (16:9), 24 кадр/с
Аудио: Русский, Dolby АС3, 48000 Гц, 640 Кбит/с, 6 каналов (5.1) - Оригинал
Субтитры: Русские (полные, SDH), украинские (полные), английские (полные), SRT
Навигация по главам: Есть (Сохранены оригинальные чаптеры как на Blu-Ray.)

General
Unique ID : 246971999090905760772045627433315367112 (0xB9CD13AC460538A388C011FFD85678C8)
Complete name : 8.pervuh.svidaniy.2012.BDRemux.1080p.mkv
Format : Matroska
File size : 14.2 GiB
Duration : 1h 26mn
Overall bit rate : 23.5 Mbps
Movie name : 8 первых свиданий (2012) Blu-ray Remux (1080p)
Encoded date : UTC 2015-02-02 17:58:02
Writing application : mkvmerge v6.1.0 ('Old Devil') built on Mar 4 2013 09:10:42
Writing library : libebml v1.3.0 + libmatroska v1.4.0
Video
ID : 1
Format : MPEG Video
Format version : Version 2
Format profile : Main@High
Format settings, BVOP : No
Format settings, Matrix : Default
Codec ID : V_MPEG2
Codec ID/Info : MPEG 1 or 2 Video
Duration : 1h 26mn
Bit rate mode : Variable
Bit rate : 22.4 Mbps
Nominal bit rate : 25.0 Mbps
Width : 1 920 pixels
Height : 1 080 pixels
Display aspect ratio : 16:9
Frame rate : 24.000 fps
Color space : YUV
Chroma subsampling : 4:2:0
Bit depth : 8 bits
Compression mode : Lossy
Bits/(Pixel*Frame) : 0.450
Stream size : 13.5 GiB (95%)
Title : 8 первых свиданий (2012)
Language : Russian
Audio
ID : 2
Format : AC-3
Format/Info : Audio Coding 3
Mode extension : CM (complete main)
Codec ID : A_AC3
Duration : 1h 26mn
Bit rate mode : Constant
Bit rate : 640 Kbps
Channel(s) : 6 channels
Channel positions : Front: L C R, Side: L R, LFE
Sampling rate : 48.0 KHz
Bit depth : 16 bits
Compression mode : Lossy
Stream size : 396 MiB (3%)
Title : Original
Language : Russian
Text #1
ID : 3
Format : UTF-8
Codec ID : S_TEXT/UTF8
Codec ID/Info : UTF-8 Plain Text
Title : Full
Language : Russian
Text #2
ID : 4
Format : UTF-8
Codec ID : S_TEXT/UTF8
Codec ID/Info : UTF-8 Plain Text
Title : Full [SDH]
Language : Russian
Text #3
ID : 5
Format : UTF-8
Codec ID : S_TEXT/UTF8
Codec ID/Info : UTF-8 Plain Text
Title : Full
Language : Ukrainian
Text #4
ID : 6
Format : UTF-8
Codec ID : S_TEXT/UTF8
Codec ID/Info : UTF-8 Plain Text
Title : Full
Language : English
Menu
00:00:00.000 : :Chapter 01
00:01:47.833 : :Chapter 02
00:09:51.041 : :Chapter 03
00:18:30.083 : :Chapter 04
00:28:04.958 : :Chapter 05
00:39:34.000 : :Chapter 06
00:51:23.916 : :Chapter 07
01:03:17.125 : :Chapter 08
01:14:08.333 : :Chapter 09




Автор ремукса - ivandubskoj



   Похожие торренты   Торрент   Размер 
В этой теме нет новых непрочитанных сообщений. 8 первых свиданий (2012) BDRip от ivandubskoj | Лицензия

1291 | 56

700.14 МБ

В этой теме нет новых непрочитанных сообщений. 8 первых свиданий (2012) Blu-Ray Remux 1080p

61 | 4

14.21 ГБ

В этой теме нет новых непрочитанных сообщений. 8 первых свиданий (2012) BDRip-AVC от HELLYWOOD | Лицензия

843 | 53

1.46 ГБ

В этой теме нет новых непрочитанных сообщений. 8 первых свиданий (2012) BDRip от HQCLUB | Лицензия

1618 | 37

1.45 ГБ

В этой теме нет новых непрочитанных сообщений. OST - 8 первых свиданий (2012) MP3 от AGR - Generalfilm

1 | 3

229.92 МБ

В этой теме нет новых непрочитанных сообщений. 8 первых свиданий (2012) DVD9

24 | 11

4.85 ГБ

В этой теме нет новых непрочитанных сообщений. 8 первых свиданий (2012) BDRip-AVC

49 | 5

1.46 ГБ




Вы не можете начинать темы
Вы не можете отвечать на сообщения
Вы не можете редактировать свои сообщения
Вы не можете удалять свои сообщения
Вы не можете добавлять вложения

Перейти:  
Для Мосгорсуда, Роскомнадзора и рекламодателей: mosgorsud-torrent[собачка]yandex.ru
 Вход
ppkBB3cker v.2 © 2008-2014 @ PPK
[ Time : 0.520s | 17 Queries | GZIP : Off ]

Торрент трекер RUTOR.IN, Не можете зайти на rutor.org? Какой новый адрес рутор? Какое зеркало рутор? Не работает rutor.org и зеркала? Тогда наш торрент специально для вас. Rutor.in неофициальное зеркало rutor. В случае если у Вас заблокирован rutor или вдруг Вы не можете на него зайти, то Вы без труда сможете скачать бесплатно и без рекламы последние новинки кино, игр, сериалов и прочего у нас, на Rutor.in. Не нужно использовать прокси, чтобы зайти на рутор, достаточно воспользоваться нашим ресурсом. Все новые фильмы, игры, сериалы, книги и музыка за 2013 и 2014 годы через торрент бесплатно. Скачивайте фильмы в хорошем качестве, игры для пк, xbox, playstation без регистрации. У нас вы найдете новые Зарубежные сериалы и Русские сериалы 2013, 2014, 2015 годов. Оставайтесь с нами, качайте любимые фильмы, игры, сериалы, книги и музыку.