img image001 image001 image001 image001 image001 image001 image001 image001 image001 image001 image001 image001 image001 image001 image001

Planets Sun Sun Sun
Статистика раздачи
Автор: Nickolas3434 | Размер: 700.14 МБ | Добавлен: 03 фев 2015
Раздают: 1291    Качают: 56
Скачать торрент
Скачать торрент
Описание торрента

СообщениеДобавлено: 03 фев 2015 

Информация о фильме
Оригинальное название: 8 первых свиданий
Год выхода: 2012
Жанр: Фэнтези, комедия, мелодрама
Режиссёр: Дэвид Додсон, Александр Маляревский
В ролях: Оксана Акиньшина, Владимир Зеленский, Денис Никифоров, Екатерина Варнава, Сабина Ахмедова, Ильдар Аллабирдин, Сергей Барковский, Наталья Иохвидова, Игорь Жижикин, Елена Кондулайнен, Евгений Кошевой, Мария Кравцова, Александр Маляревский, Костя Наконечный, Сосо Павлиашвили, Мария Петровская, Андрей Щукин, Виктор Васильев, Наталья Вихрян, Олеся Железняк, Дамир Коломийченко, Юлия Беретта
О фильме: Вера телезвезда, ее жених Константин — профессиональный теннисист. Они собираются пожениться. Никита врач-ветеринар и красавица-хирург Илона также спешат оформить отношения. Но одно прекрасное утро разрушает все планы. После веселого вечера Вера просыпается в одной постели с Никитой. Решив, что это последствия слишком бурной вечеринки, молодые люди разъезжаются в разные стороны. Но следующим днем все повторяется — Никита и Вера снова вместе, хотя каждый хорошо помнит, как они засыпали дома — каждый у себя… Так происходит всю последующую неделю. Какие-то таинственные силы устраивают эти неожиданные «свидания», кто-то хочет разрушить их браки, а может быть просто доказать, что они созданы друг для друга?

Выпущено: Россия, Горад, Квартал-95
Продолжительность: 01:26:33
Перевод: Не требуется
Файл
Качество: BDRip [Исходник: Blu-ray RUS 1080p MPEG-2 DD5.1]
Видео: XviD, 994 Кбит/с, 656x272 (2.40:1), 24 кадр/с
Аудио: Русский, MP3, 48000 Гц, 128 Кбит/с, 2 канала (Стерео) - Оригинал
Субтитры: Нет

General
Complete name : 8.pervuh.svidaniy.2012.BDRip.700MB.avi
Format : AVI
Format/Info : Audio Video Interleave
File size : 700 MiB
Duration : 1h 26mn
Overall bit rate : 1 131 Kbps
Writing application : VirtualDubMod 1.5.10.3 (build 2550/release)
Writing library : VirtualDubMod build 2550/release
Copyright : rip by ivandubskoj
Video
ID : 0
Format : MPEG-4 Visual
Format profile : Advanced Simple@L5
Format settings, BVOP : 2
Format settings, QPel : No
Format settings, GMC : No warppoints
Format settings, Matrix : Custom
Codec ID : XVID
Codec ID/Hint : XviD
Duration : 1h 26mn
Bit rate : 994 Kbps
Width : 656 pixels
Height : 272 pixels
Display aspect ratio : 2.40:1
Frame rate : 24.000 fps
Color space : YUV
Chroma subsampling : 4:2:0
Bit depth : 8 bits
Scan type : Progressive
Compression mode : Lossy
Bits/(Pixel*Frame) : 0.232
Stream size : 615 MiB (88%)
Writing library : XviD 73
Audio
ID : 1
Format : MPEG Audio
Format version : Version 1
Format profile : Layer 3
Codec ID : 55
Codec ID/Hint : MP3
Duration : 1h 26mn
Bit rate mode : Constant
Bit rate : 128 Kbps
Channel(s) : 2 channels
Sampling rate : 48.0 KHz
Compression mode : Lossy
Stream size : 79.2 MiB (11%)
Alignment : Aligned on interleaves
Interleave, duration : 42 ms (1.00 video frame)
Interleave, preload duration : 504 ms
Writing library : LAME3.99r
Encoding settings : -m s -V 4 -q 0 -lowpass 17 -b 128




Автор рипа - ivandubskoj



   Похожие торренты   Торрент   Размер 
В этой теме нет новых непрочитанных сообщений. 8 первых свиданий (2012) Blu-ray Remux 1080p от ivandubskoj | Лицензия

116 | 33

14.21 ГБ

В этой теме нет новых непрочитанных сообщений. 8 первых свиданий (2012) BDRip от HQCLUB | Лицензия

1618 | 37

1.45 ГБ

В этой теме нет новых непрочитанных сообщений. 8 первых свиданий (2012) BDRip-AVC от HELLYWOOD | Лицензия

843 | 53

1.46 ГБ

В этой теме нет новых непрочитанных сообщений. 8 первых свиданий (2012) BDRip-AVC

49 | 5

1.46 ГБ

В этой теме нет новых непрочитанных сообщений. 8 первых свиданий (2012) BDRip от HQ-ViDEO

46 | 5

1.45 ГБ

В этой теме нет новых непрочитанных сообщений. 8 первых свиданий (2012) BDRip-AVC 720p

1189 | 34

2.81 ГБ

В этой теме нет новых непрочитанных сообщений. 8 первых свиданий (2012) BDRip 1080р от Freeisland

380 | 18

4.38 ГБ




Вы не можете начинать темы
Вы не можете отвечать на сообщения
Вы не можете редактировать свои сообщения
Вы не можете удалять свои сообщения
Вы не можете добавлять вложения

Перейти:  
Для Мосгорсуда, Роскомнадзора и рекламодателей: mosgorsud-torrent[собачка]yandex.ru
 Вход
ppkBB3cker v.2 © 2008-2014 @ PPK
[ Time : 0.579s | 17 Queries | GZIP : Off ]

Торрент трекер RUTOR.IN, Не можете зайти на rutor.org? Какой новый адрес рутор? Какое зеркало рутор? Не работает rutor.org и зеркала? Тогда наш торрент специально для вас. Rutor.in неофициальное зеркало rutor. В случае если у Вас заблокирован rutor или вдруг Вы не можете на него зайти, то Вы без труда сможете скачать бесплатно и без рекламы последние новинки кино, игр, сериалов и прочего у нас, на Rutor.in. Не нужно использовать прокси, чтобы зайти на рутор, достаточно воспользоваться нашим ресурсом. Все новые фильмы, игры, сериалы, книги и музыка за 2013 и 2014 годы через торрент бесплатно. Скачивайте фильмы в хорошем качестве, игры для пк, xbox, playstation без регистрации. У нас вы найдете новые Зарубежные сериалы и Русские сериалы 2013, 2014, 2015 годов. Оставайтесь с нами, качайте любимые фильмы, игры, сериалы, книги и музыку.
cron