img image001 image001 image001 image001 image001 image001 image001 image001 image001 image001 image001 image001 image001 image001 image001

Planets Sun Sun Sun
Статистика раздачи
Автор: Nickolas3434 | Размер: 1.44 ГБ | Добавлен: 05 фев 2015
Раздают: 266    Качают: 46
Скачать торрент
Скачать торрент
Описание торрента

СообщениеДобавлено: 05 фев 2015 

Информация о фильме
Название: Море в огне
Год выхода: 1970
Режиссер: Леон Сааков
В ролях: Григорий Антоненко, Николай Гринько, Ростислав Янковский, Всеволод Платов, Владимир Кашпур, Константин Тыртов, Дальвин Щербаков, Сергей Ляхницкий, Юрий Соломин, Ольга Остроумова, Николай Ерёменко (ст.), Всеволод Сафонов, Николай Гудзь, Владлен Паулус, Николай Алексеев (II), Радий Афанасьев, Гиви Берикашвили, Борис Борисов, Лариса Виккел, Юрий Горобец, Анатолий Грачёв, Геннадий Донягин, Гарри Дунц, Николай Иванов, Эдуард Изотов, Эрвин Кнаусмюллер, Василий Корзун, Ирина Короткова, Геннадий Крашенинников, Клара Лучко, Владимир Маренков, Ольга Маркина, Владимир Петченко, Гурам Пирцхалава, Владимир Пицек, Николай Рушковский
О фильме:
Фильм воссоздает героическую эпопею обороны Севастополя в 1941—1942 годах. Осенью 1941 года немецкая армия под командованием генерала Манштейна прорвала нашу оборону под Перекопом и хлынула в Крым, тесня наши войска на Керченский полуостров. Севастополь оставался почти без прикрытия. 17 декабря немцы начали штурм города. Они стремились превратить Севастополь в груду камней и пепла. Тридцать дней продолжался третий, самый яростный штурм Севастополя, Разрушено было все, но люди продолжали сражаться с беспримерным мужеством. Однако Советское командование было вынуждено принять решение о сдаче города... Через два года Севастополь был освобожден от фашистских захватчиков. Вышедший 22 февраля 1972 года на экраны страны, широкоформатный фильм «Море в огне» первоначально назывался «Обороны Севастополя» и рисовал одну из самых героических страниц Великой Отечественной войны - подвиг защитников крымской твердыни, 250 дней отстаивавших свой город, который фашисты непрерывно атаковали с моря, с суши, с воздуха.
Страна: СССР
Студия: «Мосфильм»
Продолжительность: 01:22:34 + 00:53:57
Перевод: не требуется
Файл
Кодек: XviD
Качество: TVRip
Видео: 1099 Кбит/сек, 720х320, 2,25:1, 25,000 кадров/сек, 0,191 Бит/(Пиксели*Кадры)
Звук: MP3, 128 Кбит/сек, 2 канала, 48,0 КГц
Общее
Полное имя : D:moviespirat.caMore.v.ogne.1970.2.serii.FenixclubMore.v.ogne.1970.01.ser.iz.2.Fenixclub.avi
Формат : AVI
Формат/Информация : Audio Video Interleave
Размер файла : 730 Мбайт
Продолжительность : 1 ч. 22 м.
Общий поток : 1236 Кбит/сек
Программа кодирования : VirtualDubMod 1.5.10.3 | www.virtualdub-fr.org || (build 2550/release)
Библиотека кодирования : VirtualDub build 35560/release
Видео
Идентификатор : 0
Формат : MPEG-4 Visual
Профиль формата : Advanced Simple@L5
Параметр BVOP формата : 2
Параметр QPel формата : Нет
Параметр GMC формата : Без точки перехода
Параметр матрицы формата : Default (H.263)
Идентификатор кодека : XVID
Идентификатор кодека/Подсказка : XviD
Продолжительность : 1 ч. 22 м.
Битрейт : 1099 Кбит/сек
Ширина : 720 пикселей
Высота : 320 пикселей
Соотношение сторон : 2,25:1
Частота кадров : 25,000 кадров/сек
Цветовое пространство : YUV
Субдискретизация насыщенности : 4:2:0
Битовая глубина : 8 бит
Тип развёртки : Прогрессивная
Метод сжатия : С потерями
Бит/(Пиксели*Кадры) : 0.191
Размер потока : 649 Мбайт (89%)
Библиотека кодирования : XviD 73
Аудио
Идентификатор : 1
Формат : MPEG Audio
Версия формата : Version 1
Профиль формата : Layer 3
Режим : Joint stereo
Идентификатор кодека : 55
Идентификатор кодека/Подсказка : MP3
Продолжительность : 1 ч. 22 м.
Вид битрейта : Постоянный
Битрейт : 128 Кбит/сек
Каналы : 2 канала
Частота : 48,0 КГц
Метод сжатия : С потерями
Размер потока : 75,6 Мбайт (10%)
Выравнивание : Разделение по промежуткам
Продолжительность промежутка : 40 мс. (1,00 видеокадр)
Время предзагрузки промежутка : 500 мс.
Общее
Полное имя : D:moviespirat.caMore.v.ogne.1970.2.serii.FenixclubMore.v.ogne.1970.02.ser.iz.2.Fenixclub.avi
Формат : AVI
Формат/Информация : Audio Video Interleave
Размер файла : 749 Мбайт
Продолжительность : 53 м.
Режим общего битрейта : Переменный
Общий поток : 1941 Кбит/сек
Программа кодирования : VirtualDubMod 1.5.10.3 | www.virtualdub-fr.org || (build 2550/release)
Библиотека кодирования : VirtualDubMod build 2550/release
Видео
Идентификатор : 0
Формат : MPEG-4 Visual
Профиль формата : Advanced Simple@L5
Параметр BVOP формата : 2
Параметр QPel формата : Нет
Параметр GMC формата : Без точки перехода
Параметр матрицы формата : Default (H.263)
Идентификатор кодека : XVID
Идентификатор кодека/Подсказка : XviD
Продолжительность : 53 м.
Битрейт : 1800 Кбит/сек
Ширина : 720 пикселей
Высота : 320 пикселей
Соотношение сторон : 2,25:1
Частота кадров : 25,000 кадров/сек
Цветовое пространство : YUV
Субдискретизация насыщенности : 4:2:0
Битовая глубина : 8 бит
Тип развёртки : Прогрессивная
Метод сжатия : С потерями
Бит/(Пиксели*Кадры) : 0.312
Размер потока : 695 Мбайт (93%)
Библиотека кодирования : XviD 73
Аудио
Идентификатор : 1
Формат : MPEG Audio
Версия формата : Version 1
Профиль формата : Layer 3
Идентификатор кодека : 55
Идентификатор кодека/Подсказка : MP3
Продолжительность : 53 м.
Вид битрейта : Переменный
Битрейт : 128 Кбит/сек
Каналы : 2 канала
Частота : 48,0 КГц
Метод сжатия : С потерями
Размер потока : 49,4 Мбайт (7%)
Выравнивание : Соединение по промежуткам
Продолжительность промежутка : 24 мс. (0,60 видеокадр)
Время предзагрузки промежутка : 486 мс.

Семпл




   Похожие торренты   Торрент   Размер 
В этой теме нет новых непрочитанных сообщений. Море в огне / Fuocoammare (2016) WEB-DLRip от MegaPeer | D

104 | 12

1.46 ГБ

В этой теме нет новых непрочитанных сообщений. Море в огне / Fuocoammare (2016) WEB-DLRip 720p от MegaPeer | D

76 | 13

2.1 ГБ

В этой теме нет новых непрочитанных сообщений. За тех, кто в море (1947) TVRip

26 | 4

693.67 МБ

В этой теме нет новых непрочитанных сообщений. Море зовет (1955) TVRip

2 | 6

746.39 МБ

В этой теме нет новых непрочитанных сообщений. Девушка и море (1981) TVRip

2 | 2

884.23 МБ

В этой теме нет новых непрочитанных сообщений. Был месяц май (1970) TVRip

10 | 2

1.42 ГБ

В этой теме нет новых непрочитанных сообщений. Расплата (1970) TVRip

10 | 12

1.09 ГБ




Вы не можете начинать темы
Вы не можете отвечать на сообщения
Вы не можете редактировать свои сообщения
Вы не можете удалять свои сообщения
Вы не можете добавлять вложения

Перейти:  
Для Мосгорсуда, Роскомнадзора и рекламодателей: mosgorsud-torrent[собачка]yandex.ru
 Вход
ppkBB3cker v.2 © 2008-2014 @ PPK
[ Time : 0.569s | 15 Queries | GZIP : Off ]

Торрент трекер RUTOR.IN, Не можете зайти на rutor.org? Какой новый адрес рутор? Какое зеркало рутор? Не работает rutor.org и зеркала? Тогда наш торрент специально для вас. Rutor.in неофициальное зеркало rutor. В случае если у Вас заблокирован rutor или вдруг Вы не можете на него зайти, то Вы без труда сможете скачать бесплатно и без рекламы последние новинки кино, игр, сериалов и прочего у нас, на Rutor.in. Не нужно использовать прокси, чтобы зайти на рутор, достаточно воспользоваться нашим ресурсом. Все новые фильмы, игры, сериалы, книги и музыка за 2013 и 2014 годы через торрент бесплатно. Скачивайте фильмы в хорошем качестве, игры для пк, xbox, playstation без регистрации. У нас вы найдете новые Зарубежные сериалы и Русские сериалы 2013, 2014, 2015 годов. Оставайтесь с нами, качайте любимые фильмы, игры, сериалы, книги и музыку.