img image001 image001 image001 image001 image001 image001 image001 image001 image001 image001 image001 image001 image001 image001 image001

Planets Sun Sun Sun
Статистика раздачи
Автор: Nickolas3434 | Размер: 700.29 МБ | Добавлен: 05 фев 2015
Раздают: 516    Качают: 29
Скачать торрент
Скачать торрент
Описание торрента

СообщениеДобавлено: 05 фев 2015 

Информация о фильме
Оригинальное название: Ёлки лохматые
Год выпуска: 2014
Жанр: Комедия, семейный
Выпущено: Россия, Базелевс Продакшн
Режиссёр: Максим Свешников
В ролях: Андрей Мерзликин, Ян Цапник, Валерия Стреляева, Галина Коньшина, Игорь Власов, Сергей Троев, Айса Энимал Арт, Пётр Фёдоров, Анна Чиповская, Андрей Федорцов
Описание: "Ёлки лохматые" - продолжение одной сюжетной линии из "Ёлки 3". На этот раз хозяйка Пирата и Йоко — самарская девочка Настя — улетает с бабушкой в Питер, оставляя питомцев в отеле для собак. Расценив это как предательство, животные сбегают домой, где можно наконец почувствовать себя человеком — есть сколько угодно, играть без устали и спать на хозяйской кровати. Но райский отдых влюбленных прерывают два незадачливых воришки, которых ждет нечеловеческий прием…

Файл
Кодек: XviD
Качество видео: HDRip
Формат видео: AVI
Видео: XviD, 1004 Кбит/с, 656x272 (2.40:1), 24 кадр/с
Аудио: Русский, MP3, 48000 Гц, 128 Кбит/с, 2 канала (Стерео)

General
Complete name : Yolki.lohmatye.2014.HDRip.700MB.avi
Format : AVI
Format/Info : Audio Video Interleave
File size : 700 MiB
Duration : 1h 25mn
Overall bit rate : 1 141 Kbps
Writing application : VirtualDubMod 1.5.10.3 (build 2550/release)
Writing library : VirtualDubMod build 2550/release
Copyright : rip by ivandubskoj
Video
ID : 0
Format : MPEG-4 Visual
Format profile : Advanced Simple@L5
Format settings, BVOP : 2
Format settings, QPel : No
Format settings, GMC : No warppoints
Format settings, Matrix : Custom
Codec ID : XVID
Codec ID/Hint : XviD
Duration : 1h 25mn
Bit rate : 1 004 Kbps
Width : 656 pixels
Height : 272 pixels
Display aspect ratio : 2.40:1
Frame rate : 24.000 fps
Color space : YUV
Chroma subsampling : 4:2:0
Bit depth : 8 bits
Scan type : Progressive
Compression mode : Lossy
Bits/(Pixel*Frame) : 0.234
Stream size : 616 MiB (88%)
Writing library : XviD 73
Audio
ID : 1
Format : MPEG Audio
Format version : Version 1
Format profile : Layer 3
Codec ID : 55
Codec ID/Hint : MP3
Duration : 1h 25mn
Bit rate mode : Constant
Bit rate : 128 Kbps
Channel(s) : 2 channels
Sampling rate : 48.0 KHz
Compression mode : Lossy
Stream size : 78.6 MiB (11%)
Alignment : Aligned on interleaves
Interleave, duration : 42 ms (1.00 video frame)
Interleave, preload duration : 504 ms
Writing library : LAME3.99r
Encoding settings : -m s -V 4 -q 0 -lowpass 17 -b 128


Автор рипа - ivandubskoj



   Похожие торренты   Торрент   Размер 
В этой теме нет новых непрочитанных сообщений. Ёлки лохматые (2014) HDRip | Лицензия | КПК

472 | 19

659.86 МБ

В этой теме нет новых непрочитанных сообщений. Ёлки лохматые (2014) HDRip-AVC от UNIONGANG | Лицензия

193 | 10

2.04 ГБ

В этой теме нет новых непрочитанных сообщений. Ёлки лохматые (2014) HDRip от UNIONGANG | Лицензия

7707 | 215

1.37 ГБ

В этой теме нет новых непрочитанных сообщений. Ёлки лохматые (2014) HDRip от Scarabey | Лицензия

1168 | 79

1.45 ГБ

В этой теме нет новых непрочитанных сообщений. Ёлки лохматые (2014) HDRip от Scarabey | Лицензия

354 | 30

744.94 МБ

В этой теме нет новых непрочитанных сообщений. Ёлки лохматые (2014) HDRip-AVC

325 | 25

1.45 ГБ

В этой теме нет новых непрочитанных сообщений. Ёлки лохматые (2014) BDRip от HQCLUB | Лицензия

911 | 47

1.45 ГБ




Вы не можете начинать темы
Вы не можете отвечать на сообщения
Вы не можете редактировать свои сообщения
Вы не можете удалять свои сообщения
Вы не можете добавлять вложения

Перейти:  
Для Мосгорсуда, Роскомнадзора и рекламодателей: mosgorsud-torrent[собачка]yandex.ru
 Вход
ppkBB3cker v.2 © 2008-2014 @ PPK
[ Time : 0.038s | 15 Queries | GZIP : On ]

Торрент трекер RUTOR.IN, Не можете зайти на rutor.org? Какой новый адрес рутор? Какое зеркало рутор? Не работает rutor.org и зеркала? Тогда наш торрент специально для вас. Rutor.in неофициальное зеркало rutor. В случае если у Вас заблокирован rutor или вдруг Вы не можете на него зайти, то Вы без труда сможете скачать бесплатно и без рекламы последние новинки кино, игр, сериалов и прочего у нас, на Rutor.in. Не нужно использовать прокси, чтобы зайти на рутор, достаточно воспользоваться нашим ресурсом. Все новые фильмы, игры, сериалы, книги и музыка за 2013 и 2014 годы через торрент бесплатно. Скачивайте фильмы в хорошем качестве, игры для пк, xbox, playstation без регистрации. У нас вы найдете новые Зарубежные сериалы и Русские сериалы 2013, 2014, 2015 годов. Оставайтесь с нами, качайте любимые фильмы, игры, сериалы, книги и музыку.