img image001 image001 image001 image001 image001 image001 image001 image001 image001 image001 image001 image001 image001 image001 image001

Planets Sun Sun Sun
Статистика раздачи
Автор: Nickolas3434 | Размер: 745.78 МБ | Добавлен: 06 фев 2015
Раздают: 64    Качают: 7
Скачать торрент
Скачать торрент
Описание торрента

СообщениеДобавлено: 06 фев 2015 

Информация о фильме
Оригинальное название: Весна на Заречной улице
Год выпуска: 1956
Жанр: Мелодрама
Выпущено: СССР, Одесская киностудия
Режиссёр: Марлен Хуциев, Феликс Миронер
В ролях: Нина Иванова, Николай Рыбников, Владимир Гуляев, Валентина Пугачёва, Геннадий Юхтин, Римма Шорохова, Николай Ключнев, Марина Гаврилко, Юрий Белов, Валентин Брылеев, Виктор Маркин, Евгений Коваленко, Александр Мороз, Люся Максимова, Жан Мельников
Описание: История любви юной учительницы школы рабочей молодежи и ее ученика — одна из самых популярных отечественных мелодрам. Герой фильма, парень лихой и самоуверенный, лучший сталевар завода, не привык к отказам женщин. И вдруг его домогательства получают отпор!.. Поначалу он пытается играть в безразличие. Но проходит время — и он вдруг понимает, что к нему впервые пришло настоящее, глубокое чувство.

Файл
Кодек: XviD
Качество видео: BDRip [Исходник: Blu-ray 1080p AVC DTS-HD 5.1]
Формат видео: AVI
Видео: XviD, 972 Кбит/с, 656x464 (1.379), 23,976 кадр/с
Аудио: Русский, MP3, 48000 Гц, 128 Кбит/с, 2 канала (Стерео)

General
Complete name : Vesna.na.Zarechnoy.ulitse.1956.BDRip.745MB.avi
Format : AVI
Format/Info : Audio Video Interleave
File size : 746 MiB
Duration : 1h 34mn
Overall bit rate : 1 109 Kbps
Writing application : VirtualDubMod 1.5.10.3 (build 2550/release)
Writing library : VirtualDubMod build 2550/release
Copyright : rip by ivandubskoj
Video
ID : 0
Format : MPEG-4 Visual
Format profile : Advanced Simple@L5
Format settings, BVOP : 2
Format settings, QPel : No
Format settings, GMC : No warppoints
Format settings, Matrix : Custom
Codec ID : XVID
Codec ID/Hint : XviD
Duration : 1h 34mn
Bit rate : 972 Kbps
Width : 640 pixels
Height : 464 pixels
Display aspect ratio : 1.379
Frame rate : 23.976 fps
Color space : YUV
Chroma subsampling : 4:2:0
Bit depth : 8 bits
Scan type : Progressive
Compression mode : Lossy
Bits/(Pixel*Frame) : 0.136
Stream size : 653 MiB (88%)
Writing library : XviD 73
Audio
ID : 1
Format : MPEG Audio
Format version : Version 1
Format profile : Layer 3
Codec ID : 55
Codec ID/Hint : MP3
Duration : 1h 34mn
Bit rate mode : Constant
Bit rate : 128 Kbps
Channel(s) : 2 channels
Sampling rate : 48.0 KHz
Compression mode : Lossy
Stream size : 86.1 MiB (12%)
Alignment : Aligned on interleaves
Interleave, duration : 42 ms (1.00 video frame)
Interleave, preload duration : 504 ms
Writing library : LAME3.99r
Encoding settings : -m s -V 4 -q 0 -lowpass 17 -b 128




Автор рипа - ivandubskoj



   Похожие торренты   Торрент   Размер 
В этой теме нет новых непрочитанных сообщений. Весна на Заречной улице (1956) HDTVRip от ivandubskoj | Цветная версия

704 | 44

1.46 ГБ

В этой теме нет новых непрочитанных сообщений. Весна на Заречной улице (1956) HDTVRip от ivandubskoj | Цветная версия

142 | 20

745.68 МБ

В этой теме нет новых непрочитанных сообщений. Весна на Заречной улице (1956) HDTVRip 720p от ivandubskoj | Цветная версия

352 | 32

2.92 ГБ

В этой теме нет новых непрочитанных сообщений. Весна на Заречной улице (1956) BDRip 1080p

30 | 18

8.45 ГБ

В этой теме нет новых непрочитанных сообщений. Весна на Заречной улице (1956) BDRip-AVC от potroks

47 | 12

1.46 ГБ

В этой теме нет новых непрочитанных сообщений. Весна на Заречной улице (1956) BDRip от HQCLUB

27 | 3

1.45 ГБ

В этой теме нет новых непрочитанных сообщений. Весна на Заречной улице (1956) BDRip 1080p

34 | 24

5.77 ГБ




Вы не можете начинать темы
Вы не можете отвечать на сообщения
Вы не можете редактировать свои сообщения
Вы не можете удалять свои сообщения
Вы не можете добавлять вложения

Перейти:  
Для Мосгорсуда, Роскомнадзора и рекламодателей: mosgorsud-torrent[собачка]yandex.ru
 Вход
ppkBB3cker v.2 © 2008-2014 @ PPK
[ Time : 0.044s | 17 Queries | GZIP : Off ]

Торрент трекер RUTOR.IN, Не можете зайти на rutor.org? Какой новый адрес рутор? Какое зеркало рутор? Не работает rutor.org и зеркала? Тогда наш торрент специально для вас. Rutor.in неофициальное зеркало rutor. В случае если у Вас заблокирован rutor или вдруг Вы не можете на него зайти, то Вы без труда сможете скачать бесплатно и без рекламы последние новинки кино, игр, сериалов и прочего у нас, на Rutor.in. Не нужно использовать прокси, чтобы зайти на рутор, достаточно воспользоваться нашим ресурсом. Все новые фильмы, игры, сериалы, книги и музыка за 2013 и 2014 годы через торрент бесплатно. Скачивайте фильмы в хорошем качестве, игры для пк, xbox, playstation без регистрации. У нас вы найдете новые Зарубежные сериалы и Русские сериалы 2013, 2014, 2015 годов. Оставайтесь с нами, качайте любимые фильмы, игры, сериалы, книги и музыку.
cron