img image001 image001 image001 image001 image001 image001 image001 image001 image001 image001 image001 image001 image001 image001 image001

Planets Sun Sun Sun
Статистика раздачи
Автор: Nickolas3434 | Размер: 1.46 ГБ | Добавлен: 06 фев 2015
Раздают: 704    Качают: 44
Скачать торрент
Скачать торрент
Описание торрента

СообщениеДобавлено: 06 фев 2015 

Информация о фильме
Оригинальное название: Весна на Заречной улице
Год выпуска: 1956
Жанр: Мелодрама
Выпущено: СССР, Одесская киностудия
Режиссёр: Марлен Хуциев, Феликс Миронер
В ролях: Нина Иванова, Николай Рыбников, Владимир Гуляев, Валентина Пугачёва, Геннадий Юхтин, Римма Шорохова, Николай Ключнев, Марина Гаврилко, Юрий Белов, Валентин Брылеев, Виктор Маркин, Евгений Коваленко, Александр Мороз, Люся Максимова, Жан Мельников
Описание: История любви юной учительницы школы рабочей молодежи и ее ученика — одна из самых популярных отечественных мелодрам. Герой фильма, парень лихой и самоуверенный, лучший сталевар завода, не привык к отказам женщин. И вдруг его домогательства получают отпор!.. Поначалу он пытается играть в безразличие. Но проходит время — и он вдруг понимает, что к нему впервые пришло настоящее, глубокое чувство.

Файл
Кодек: XviD
Качество видео: HDTVRip [Исходник: HDTV (1080i) от Mydimka]
Формат видео: AVI
Продолжительность: 01:30:03
Видео: XviD, 2121 Кбит/с, 704x400 (16:9), 25 кадр/с
Аудио: Русский, Dolby AC3, 48000 Гц, 192 Кбит/с, 2 канала (Стерео)

General
Complete name : Vesna.na.Zarechnoy.ulitse.1956.HDTVRip.avi
Format : AVI
Format/Info : Audio Video Interleave
File size : 1.46 GiB
Duration : 1h 30mn
Overall bit rate : 2 321 Kbps
Writing application : VirtualDubMod 1.5.10.3 (build 2550/release)
Writing library : VirtualDubMod build 2550/release
Copyright : rip by ivandubskoj
Video
ID : 0
Format : MPEG-4 Visual
Format profile : Advanced Simple@L5
Format settings, BVOP : 1
Format settings, QPel : No
Format settings, GMC : No warppoints
Format settings, Matrix : Default (MPEG)
Codec ID : XVID
Codec ID/Hint : XviD
Duration : 1h 30mn
Bit rate : 2 121 Kbps
Width : 704 pixels
Height : 400 pixels
Display aspect ratio : 16:9
Frame rate : 25.000 fps
Color space : YUV
Chroma subsampling : 4:2:0
Bit depth : 8 bits
Scan type : Progressive
Compression mode : Lossy
Bits/(Pixel*Frame) : 0.301
Stream size : 1.33 GiB (91%)
Writing library : XviD 73
Audio
ID : 1
Format : AC-3
Format/Info : Audio Coding 3
Mode extension : CM (complete main)
Codec ID : 2000
Duration : 1h 30mn
Bit rate mode : Constant
Bit rate : 192 Kbps
Channel(s) : 2 channels
Channel positions : Front: L R
Sampling rate : 48.0 KHz
Bit depth : 16 bits
Compression mode : Lossy
Stream size : 124 MiB (8%)
Alignment : Split accross interleaves
Interleave, duration : 64 ms (1.60 video frames)
Interleave, preload duration : 500 ms




Автор рипа - ivandubskoj



   Похожие торренты   Торрент   Размер 
В этой теме нет новых непрочитанных сообщений. Весна на Заречной улице (1956) HDTVRip от ivandubskoj | Цветная версия

142 | 20

745.68 МБ

В этой теме нет новых непрочитанных сообщений. Весна на Заречной улице (1956) HDTVRip 720p от ivandubskoj | Цветная версия

352 | 32

2.92 ГБ

В этой теме нет новых непрочитанных сообщений. Весна на Заречной улице (1956) HDTVRip-AVC от ExKinoRay | Цветная версия

610 | 25

4.05 ГБ

В этой теме нет новых непрочитанных сообщений. Весна на Заречной улице (1956) SATRip-AVC | Цветная версия

25 | 7

1.4 ГБ

В этой теме нет новых непрочитанных сообщений. Весна на Заречной улице (1956) SATRip | Цветная версия

150 | 13

1.35 ГБ

В этой теме нет новых непрочитанных сообщений. Весна на Заречной улице (1956) BDRip от ivandubskoj | Лицензия

64 | 7

745.78 МБ

В этой теме нет новых непрочитанных сообщений. Весна на Заречной улице (1956) HDTVRip от New-Team

39 | 4

744.51 МБ




Вы не можете начинать темы
Вы не можете отвечать на сообщения
Вы не можете редактировать свои сообщения
Вы не можете удалять свои сообщения
Вы не можете добавлять вложения

Перейти:  
Для Мосгорсуда, Роскомнадзора и рекламодателей: mosgorsud-torrent[собачка]yandex.ru
 Вход
ppkBB3cker v.2 © 2008-2014 @ PPK
[ Time : 0.679s | 17 Queries | GZIP : Off ]

Торрент трекер RUTOR.IN, Не можете зайти на rutor.org? Какой новый адрес рутор? Какое зеркало рутор? Не работает rutor.org и зеркала? Тогда наш торрент специально для вас. Rutor.in неофициальное зеркало rutor. В случае если у Вас заблокирован rutor или вдруг Вы не можете на него зайти, то Вы без труда сможете скачать бесплатно и без рекламы последние новинки кино, игр, сериалов и прочего у нас, на Rutor.in. Не нужно использовать прокси, чтобы зайти на рутор, достаточно воспользоваться нашим ресурсом. Все новые фильмы, игры, сериалы, книги и музыка за 2013 и 2014 годы через торрент бесплатно. Скачивайте фильмы в хорошем качестве, игры для пк, xbox, playstation без регистрации. У нас вы найдете новые Зарубежные сериалы и Русские сериалы 2013, 2014, 2015 годов. Оставайтесь с нами, качайте любимые фильмы, игры, сериалы, книги и музыку.