img image001 image001 image001 image001 image001 image001 image001 image001 image001 image001 image001 image001 image001 image001 image001

Planets Sun Sun Sun
Статистика раздачи
Автор: Nickolas3434 | Размер: 12.4 ГБ | Добавлен: 06 фев 2015
Раздают: 215    Качают: 14
Скачать торрент
Скачать торрент
Описание торрента

СообщениеДобавлено: 06 фев 2015 

Информация о фильме
Название: Узник замка Иф
Год выхода: 1988
Жанр: драма, приключения, история
Режиссер: Георгий Юнгвальд-Хилькевич
В ролях: Виктор Авилов, Евгений Дворжецкий, Анна Самохина, Михаил Боярский, Арнис Лицитис, Алексей Жарков, Игорь Скляр, Нодира Мирзаева, Алексей Петренко, Светлана Смирнова
О фильме:
По мотивам романа А. Дюма «Граф Монте-Кристо». В самый канун свадьбы с любимой девушкой Эдмон Дантес по ложному обвинению становится узником мрачного замка Иф.
Здесь ему предстоит томиться до конца дней своих, но отчаянная решимость спастись и счастливый случай помогают ему выбраться на волю. Сказочно разбогатев и превратившись в графа Монте-Кристо, он начинает мстить…

Страна: СССР, Франция
Студия: Одесская киностудия, Совинфильм
Продолжительность: 220 мин. / 03:40
Перевод: не требуется
Файл
Кодек: MPEG2
Качество: 2xDVD9
Видео: PAL 4:3 (720x576@768x576) VBR 6730 Kbps, 25.000 fps
Звук: Dolby AC3, 2 ch, 48.0 KHz, 192 Кbps
Субтитры: отсутствуют
General
Complete name : E:PrisonerDVD1VIDEO_TSVTS_01_1.VOB
Format : MPEG-PS
File size : 1 024 MiB
Duration : 20mn 16s
Overall bit rate mode : Variable
Overall bit rate : 7 062 Kbps
Video
ID : 224 (0xE0)
Format : MPEG Video
Format version : Version 2
Format profile : Main@Main
Format settings, BVOP : Yes
Format settings, Matrix : Custom
Format settings, GOP : M=3, N=15
Format settings, picture struc : Frame
Duration : 20mn 16s
Bit rate mode : Variable
Bit rate : 6 730 Kbps
Maximum bit rate : 9 000 Kbps
Width : 720 pixels
Height : 576 pixels
Display aspect ratio : 4:3
Frame rate : 25.000 fps
Standard : PAL
Color space : YUV
Chroma subsampling : 4:2:0
Bit depth : 8 bits
Scan type : Interlaced
Scan order : Top Field First
Compression mode : Lossy
Bits/(Pixel*Frame) : 0.649
Time code of first frame : 00:00:00:00
Time code source : Group of pictures header
GOP, Open/Closed : Open
Stream size : 976 MiB (95%)
GOP, Open/Closed of first fram : Closed
Audio
ID : 189 (0xBD)-128 (0x80)
Format : AC-3
Format/Info : Audio Coding 3
Mode extension : CM (complete main)
Format settings, Endianness : Big
Muxing mode : DVD-Video
Duration : 20mn 15s
Bit rate mode : Constant
Bit rate : 192 Kbps
Channel(s) : 2 channels
Channel positions : Front: L R
Sampling rate : 48.0 KHz
Bit depth : 16 bits
Compression mode : Lossy
Stream size : 27.8 MiB (3%)
Menu



   Похожие торренты   Торрент   Размер 
В этой теме нет новых непрочитанных сообщений. Узник замка Иф (1988) DVD9

46 | 16

7.03 ГБ

В этой теме нет новых непрочитанных сообщений. Узник замка Иф (1988) DVDRip

36 | 12

3.53 ГБ

В этой теме нет новых непрочитанных сообщений. Узник замка Иф (1988) DVDRip-AVC

305 | 64

1.8 ГБ

В этой теме нет новых непрочитанных сообщений. Узник замка Иф (1988) DVDRip | КПК

127 | 17

1.21 ГБ

В этой теме нет новых непрочитанных сообщений. Узник замка Иф (1988) DVDRip-AVC от ExKinoRay

245 | 23

3.32 ГБ

В этой теме нет новых непрочитанных сообщений. Узник замка Иф (1988) DVDRip от FREEISLAND

69 | 10

3.94 ГБ

В этой теме нет новых непрочитанных сообщений. Тайна замка тамплиеров / La commanderie [01x01-08] (2010) DVD9

13 | 6

7.51 ГБ




Вы не можете начинать темы
Вы не можете отвечать на сообщения
Вы не можете редактировать свои сообщения
Вы не можете удалять свои сообщения
Вы не можете добавлять вложения

Перейти:  
Для Мосгорсуда, Роскомнадзора и рекламодателей: mosgorsud-torrent[собачка]yandex.ru
 Вход
ppkBB3cker v.2 © 2008-2014 @ PPK
[ Time : 0.027s | 16 Queries | GZIP : Off ]

cron