img image001 image001 image001 image001 image001 image001 image001 image001 image001 image001 image001 image001 image001 image001 image001 image001

Planets Sun Sun Sun
Статистика раздачи
Автор: Nickolas3434 | Размер: 5.56 ГБ | Добавлен: 06 фев 2015
Раздают: 59    Качают: 7
Скачать торрент
Скачать торрент
Описание торрента

СообщениеДобавлено: 06 фев 2015 

Информация о фильме
Название: Небесный тихоход
Год выхода: 1945
Жанр: комедия, военный
Режиссер: Семен Тимошенко
В ролях: Николай Крючков, Василий Меркурьев, Василий Нещипленко, Алла Парфаньяк, Людмила Глазова, Тамара Алешина, Яков Гудкин, Фаина Раневская, Константин Скоробогатов, Семен Тимошенко
О фильме:
Три друга, летчики-офицеры, поклялись не любить до конца войны. Однако военная служба познакомила их с летчицами женской эскадрильи. И друзья один за другим начали сдавать свои позиции.
После тяжелого ранения летчик Булочкин вынужден летать не на скоростном истребителе, а на «тихоходе» У-2. Привыкший к опасностям Булочкин с трудом привыкает к спокойной жизни в эскадрилье, где большинство летчиков — девушки. Но вскоре становится ясно, что на войне важны и «тихоходы».

Страна: СССР
Студия: Ленфильм
Продолжительность: 80 мин. / 01:20
Перевод: не требуется
Файл
Кодек: MPEG2
Качество: BD -> DVD9
Видео: PAL 4:3 (720x576@768x576) VBR 8234 Kbps, 25.000 fps
Аудио 1: Dolby AC3, 6 ch, 48.0 KHz, 448 Kbps
Аудио 2: Dolby AC3, 1 ch, 48.0 KHz, 192 Kbps
Аудио 3: DTS 6 ch, 48.0 KHz, 755 Kbps
Субтитры: отсутствуют
General
Complete name : E:Небесный тихоход Blu ray_DVD9VIDEO_TSVTS_01_1.VOB
Format : MPEG-PS
File size : 1 000 MiB
Duration : 14mn 14s
Overall bit rate mode : Variable
Overall bit rate : 9 824 Kbps
Video
ID : 224 (0xE0)
Format : MPEG Video
Format version : Version 2
Format profile : Main@Main
Format settings, BVOP : Yes
Format settings, Matrix : Custom
Format settings, GOP : M=3, N=15
Format settings, picture struc : Frame
Duration : 14mn 14s
Bit rate mode : Variable
Bit rate : 8 234 Kbps
Maximum bit rate : 8 450 Kbps
Width : 720 pixels
Height : 576 pixels
Display aspect ratio : 4:3
Frame rate : 25.000 fps
Standard : PAL
Color space : YUV
Chroma subsampling : 4:2:0
Bit depth : 8 bits
Scan type : Interlaced
Scan order : Top Field First
Compression mode : Lossy
Bits/(Pixel*Frame) : 0.794
Time code of first frame : 00:00:00:00
Time code source : Group of pictures header
GOP, Open/Closed : Open
Stream size : 838 MiB (84%)
GOP, Open/Closed of first fram : Closed
Audio #1
ID : 189 (0xBD)-129 (0x81)
Format : AC-3
Format/Info : Audio Coding 3
Mode extension : CM (complete main)
Format settings, Endianness : Big
Muxing mode : DVD-Video
Duration : 14mn 13s
Bit rate mode : Constant
Bit rate : 448 Kbps
Channel(s) : 6 channels
Channel positions : Front: L C R, Side: L R, LFE
Sampling rate : 48.0 KHz
Bit depth : 16 bits
Compression mode : Lossy
Stream size : 45.6 MiB (5%)
Audio #2
ID : 189 (0xBD)-130 (0x82)
Format : AC-3
Format/Info : Audio Coding 3
Mode extension : CM (complete main)
Format settings, Endianness : Big
Muxing mode : DVD-Video
Duration : 14mn 14s
Bit rate mode : Constant
Bit rate : 192 Kbps
Channel(s) : 1 channel
Channel positions : Front: C
Sampling rate : 48.0 KHz
Bit depth : 16 bits
Compression mode : Lossy
Stream size : 19.5 MiB (2%)
Audio #3
ID : 189 (0xBD)-136 (0x88)
Format : DTS
Format/Info : Digital Theater Systems
Mode : 16
Format settings, Endianness : Big
Muxing mode : DVD-Video
Duration : 14mn 13s
Bit rate mode : Constant
Bit rate : 755 Kbps
Channel(s) : 6 channels
Channel positions : Front: L C R, Side: L R, LFE
Sampling rate : 48.0 KHz
Bit depth : 24 bits
Compression mode : Lossy
Stream size : 76.8 MiB (8%)
Menu



   Похожие торренты   Торрент   Размер 
В этой теме нет новых непрочитанных сообщений. Небесный тихоход (1945) BDRip-AVC от New-Team | Цветная версия

292 | 14

1.46 ГБ

В этой теме нет новых непрочитанных сообщений. Небесный тихоход (1945) BDRip от New-Team | Цветная версия

257 | 32

1.46 ГБ

В этой теме нет новых непрочитанных сообщений. Небесный тихоход (1945) BDRip от New-Team | Цветная версия

59 | 10

744.25 МБ

В этой теме нет новых непрочитанных сообщений. Небесный тихоход (1945) BDRip 720p от New-Team | Цветная версия

124 | 20

2.19 ГБ

В этой теме нет новых непрочитанных сообщений. Вермахт в России 1941-1945 / The Wehrmacht in Russia 1941-1945 (1999) DVDRip от Pshichko66

14 | 2

2.05 ГБ

В этой теме нет новых непрочитанных сообщений. Небесный суд (2012) WEB-DL 720p

645 | 63

2.75 ГБ

В этой теме нет новых непрочитанных сообщений. Небесный суд (2012) WEB-DLRip

1760 | 401

1.45 ГБ




Вы не можете начинать темы
Вы не можете отвечать на сообщения
Вы не можете редактировать свои сообщения
Вы не можете удалять свои сообщения
Вы не можете добавлять вложения

Перейти:  
 Вход
ppkBB3cker v.2 © 2008-2014 @ PPK
[ Time : 0.028s | 16 Queries | GZIP : Off ]

cron