img image001 image001 image001 image001 image001 image001 image001 image001 image001 image001 image001 image001 image001 image001 image001

Planets Sun Sun Sun
Статистика раздачи
Автор: Nickolas3434 | Размер: 1.46 ГБ | Добавлен: 08 фев 2015
Раздают: 164    Качают: 3
Скачать торрент
Скачать торрент
Описание торрента

СообщениеДобавлено: 08 фев 2015 

Информация о фильме
Название: Мамы 3
Год выхода: 2014
Жанр: комедия, семейный
Режиссер: Георгий Малков, Эмиль Никогосян
В ролях: Гарик Харламов, Ольга Волкова, Мария Сёмкина, Андрей Ургант, Евгений Шапошников, Артём Киселёв, Кристина Орса, Анастасия Заворотнюк, Тимур Родригез, Евгений Сморигин, Захар Соколов
О фильме: 31 декабря наши Мамы вместо того, чтобы резать оливье и смотреть «Иронию Судьбы», летят в Прагу праздновать Новый Год «по-европейски». Но самолет из-за погодных условий вынужден приземлиться в аэропорту небольшого, но очень красивого и уютного польского городка. Город встречает Мам абсолютно пустыми улицами. Новый Год для местных жителей- спокойный праздник. Наших Мам и их попутчиков это категорически не устраивает, и они решают устроить в этой «провинциальной Европе» настоящий, безбашенный Новый Год «по-нашему»… Дело за малым — найти Деда Мороза, Советское шампанское, оливье, петарды… в общем, всё, что нужно для праздника!

Выпущено: Россия
Продолжительность: 01:31:52
Озвучивание: Оригинал [iTunes]
Файл
Кодек: x264
Качество: WEB-DLRip (AVC)
Видео: MPEG-4 AVC, 1887 Кбит/с, 720x406
Звук: AC3, 6 ch, 384 Кбит/с
Общее
Уникальный идентификатор : 223702136294964204538844963500480290759 (0xA84B76DBCCE160229214E6A191F45FC7)
Полное имя : D:ВидеоМамы3.2014.O.WEB-DL-Rip(AVC) by Vovan366(ExKinoRay).mkv
Формат : Matroska
Версия формата : Version 4 / Version 2
Размер файла : 1,46 Гбайт
Продолжительность : 1 ч. 31 м.
Общий поток : 2271 Кбит/сек
Название фильма : Мамы3.2014.O.WEB-DL-Rip(AVC) by Vovan366(ExKinoRay)
Дата кодирования : UTC 2015-02-07 10:01:03
Программа кодирования : mkvmerge v7.5.0 ('Glass Culture') 64bit built on Jan 4 2015 16:48:44
Библиотека кодирования : libebml v1.3.1 + libmatroska v1.4.2
DURATION : 01:31:51.936000000
NUMBER_OF_FRAMES : 172248
NUMBER_OF_BYTES : 264572928
_STATISTICS_WRITING_APP : mkvmerge v7.5.0 ('Glass Culture') 64bit built on Jan 4 2015 16:48:44
_STATISTICS_WRITING_DATE_UTC : 2015-02-07 10:01:03
_STATISTICS_TAGS : BPS DURATION NUMBER_OF_FRAMES NUMBER_OF_BYTES
Видео
Идентификатор : 1
Формат : AVC
Формат/Информация : Advanced Video Codec
Профиль формата : High@L4.1
Параметр CABAC формата : Да
Параметр ReFrames формата : 9 кадров
Идентификатор кодека : V_MPEG4/ISO/AVC
Продолжительность : 1 ч. 31 м.
Битрейт : 1887 Кбит/сек
Ширина : 720 пикселей
Высота : 306 пикселей
Соотношение сторон : 2,35:1
Режим частоты кадров : Постоянный
Частота кадров : 24,000 кадра/сек
Цветовое пространство : YUV
Субдискретизация насыщенности : 4:2:0
Битовая глубина : 8 бит
Тип развёртки : Прогрессивная
Бит/(Пиксели*Кадры) : 0.357
Размер потока : 1,18 Гбайт (81%)
Заголовок : by Vovan366(ExKinoRay)
Библиотека кодирования : x264 core 130 r2273 b3065e6
Настройки программы : cabac=1 / ref=9 / deblock=1:-3:-3 / analyse=0x3:0x133 / me=umh / subme=11 / psy=1 / psy_rd=1.00:0.15 / mixed_ref=1 / me_range=32 / chroma_me=1 / trellis=2 / 8x8dct=1 / cqm=0 / deadzone=21,11 / fast_pskip=0 / chroma_qp_offset=-3 / threads=6 / lookahead_threads=1 / sliced_threads=0 / nr=0 / decimate=0 / interlaced=0 / bluray_compat=0 / constrained_intra=0 / bframes=9 / b_pyramid=2 / b_adapt=2 / b_bias=0 / direct=3 / weightb=1 / open_gop=0 / weightp=2 / keyint=240 / keyint_min=23 / scenecut=40 / intra_refresh=0 / rc=2pass / mbtree=0 / bitrate=1887 / ratetol=1.0 / qcomp=0.60 / qpmin=0 / qpmax=69 / qpstep=4 / cplxblur=20.0 / qblur=0.5 / ip_ratio=1.40 / pb_ratio=1.30 / aq=1:1.00
Default : Да
Forced : Нет
Аудио
Идентификатор : 2
Формат : AC-3
Формат/Информация : Audio Coding 3
Расширение режима : CM (complete main)
Параметр Endianness формата : Big
Идентификатор кодека : A_AC3
Продолжительность : 1 ч. 31 м.
Вид битрейта : Постоянный
Битрейт : 384 Кбит/сек
Каналы : 6 каналов
Расположение каналов : Front: L C R, Side: L R, LFE
Частота : 48,0 КГц
Битовая глубина : 16 бит
Метод сжатия : С потерями
Размер потока : 252 Мбайт (17%)
Язык : Russian
Default : Да
Forced : Нет
Меню
00:00:00.000 : en:Глава 1
00:06:18.000 : en:Глава 2
00:11:31.000 : en:Глава 3
00:15:41.000 : en:Глава 4
00:19:45.000 : en:Глава 5
00:24:59.000 : en:Глава 6
00:29:44.000 : en:Глава 7
00:34:56.000 : en:Глава 8
00:42:27.000 : en:Глава 9
00:48:26.000 : en:Глава 10
00:52:51.000 : en:Глава 11
00:58:33.000 : en:Глава 12
01:02:46.000 : en:Глава 13
01:09:37.000 : en:Глава 14
01:14:43.000 : en:Глава 15
01:20:30.000 : en:Глава 16



Релиз от:
Rip by: Vovan366



   Похожие торренты   Торрент   Размер 
В этой теме нет новых непрочитанных сообщений. Мамы 3 (2014) WEB-DLRip | iTunes

50 | 2

1.37 ГБ

В этой теме нет новых непрочитанных сообщений. Мамы 3 (2014) WEB-DLRip | iTunes

79 | 2

1.37 ГБ

В этой теме нет новых непрочитанных сообщений. Мамы 3 (2014) WEB-DLRip от Scarabey | iTunes

76 | 2

743.77 МБ

В этой теме нет новых непрочитанных сообщений. Мамы 3 (2014) WEB-DLRip от Scarabey | iTunes

74 | 2

1.45 ГБ

В этой теме нет новых непрочитанных сообщений. Мамы 3 (2014) WEB-DL 720p | iTunes

270 | 7

2.92 ГБ

В этой теме нет новых непрочитанных сообщений. Мамы 3 (2014) НDRip-AVC от ExKinoRay | Лицензия

34 | 5

1.46 ГБ

В этой теме нет новых непрочитанных сообщений. Мамы 3 (2014) BDRip 720p от ExKinoRay | Лицензия

53 | 8

3.88 ГБ




Вы не можете начинать темы
Вы не можете отвечать на сообщения
Вы не можете редактировать свои сообщения
Вы не можете удалять свои сообщения
Вы не можете добавлять вложения

Перейти:  
Для Мосгорсуда, Роскомнадзора и рекламодателей: mosgorsud-torrent[собачка]yandex.ru
 Вход
ppkBB3cker v.2 © 2008-2014 @ PPK
[ Time : 0.022s | 15 Queries | GZIP : Off ]

Торрент трекер RUTOR.IN, Не можете зайти на rutor.org? Какой новый адрес рутор? Какое зеркало рутор? Не работает rutor.org и зеркала? Тогда наш торрент специально для вас. Rutor.in неофициальное зеркало rutor. В случае если у Вас заблокирован rutor или вдруг Вы не можете на него зайти, то Вы без труда сможете скачать бесплатно и без рекламы последние новинки кино, игр, сериалов и прочего у нас, на Rutor.in. Не нужно использовать прокси, чтобы зайти на рутор, достаточно воспользоваться нашим ресурсом. Все новые фильмы, игры, сериалы, книги и музыка за 2013 и 2014 годы через торрент бесплатно. Скачивайте фильмы в хорошем качестве, игры для пк, xbox, playstation без регистрации. У нас вы найдете новые Зарубежные сериалы и Русские сериалы 2013, 2014, 2015 годов. Оставайтесь с нами, качайте любимые фильмы, игры, сериалы, книги и музыку.