img image001 image001 image001 image001 image001 image001 image001 image001 image001 image001 image001 image001 image001 image001 image001

Planets Sun Sun Sun
Статистика раздачи
Автор: Nickolas3434 | Размер: 2.18 ГБ | Добавлен: 11 фев 2015
Раздают: 167    Качают: 3
Скачать торрент
Скачать торрент
Описание торрента

СообщениеДобавлено: 11 фев 2015 

Информация о фильме
Название: Левиафан
Год выхода: 2014
Жанр: Драма
Режиссер: Андрей Звягинцев
В ролях: Алексей Серебряков, Елена Лядова, Владимир Вдовиченков, Роман Мадянов, Анна Уколова, Алексей Розин, Сергей Походаев, Валерий Гришко, Сергей Бачурский, Платон Каменев
О фильме:
Главный герой, Николай, живёт в маленьком городке близ Баренцева моря, в хижине на берегу небольшой бухты, куда порой заплывают киты. Когда продажный мэр города пытается конфисковать почти всё имущество Николая — дом, автомастерскую и его собственные земли — главный герой прибегает к помощи старого друга по армии, ныне уважаемого адвоката, Дмитрия, который определяет единственный способ борьбы с политиком — найти на него убойный компромат.

Страна: Россия
Студия: Нон-стоп Продакшн
Продолжительность: 02:15:48
Перевод: Оригинал
Файл
Кодек: х264
Качество: DVDRip(AVC)
Видео: MPEG-4 AVC, 1655 Кбит/с, 720x300
Аудио: Русский (AC3, 6 ch, 448 Кбит/с), французский (AC3, 2 ch, 192 Кбит/с)
Субтитры: Отсутствуют
Общее
Уникальный идентификатор : 178010090121999448255538869246041601372 (0x85EB7F0D50572A1DB00CA5EA2A4D355C)
Полное имя : D:ВидеоLeviathan.2014.DVDRip(AVC) by Vovan366(ExKinoRay).mkv
Формат : Matroska
Версия формата : Version 4 / Version 2
Размер файла : 2,18 Гбайт
Продолжительность : 2 ч. 15 м.
Общий поток : 2296 Кбит/сек
Название фильма : Leviathan.2014.DVDRip(AVC) by Vovan366(ExKinoRay)
Дата кодирования : UTC 2015-02-08 09:26:53
Программа кодирования : mkvmerge v7.5.0 ('Glass Culture') 64bit built on Jan 4 2015 16:48:44
Библиотека кодирования : libebml v1.3.1 + libmatroska v1.4.2
DURATION : 02:15:47.904000000
NUMBER_OF_FRAMES : 254622
NUMBER_OF_BYTES : 195549696
_STATISTICS_WRITING_APP : mkvmerge v7.5.0 ('Glass Culture') 64bit built on Jan 4 2015 16:48:44
_STATISTICS_WRITING_DATE_UTC : 2015-02-08 09:26:53
_STATISTICS_TAGS : BPS DURATION NUMBER_OF_FRAMES NUMBER_OF_BYTES
Видео
Идентификатор : 1
Формат : AVC
Формат/Информация : Advanced Video Codec
Профиль формата : High@L4.1
Параметр CABAC формата : Да
Параметр ReFrames формата : 9 кадров
Идентификатор кодека : V_MPEG4/ISO/AVC
Продолжительность : 2 ч. 15 м.
Битрейт : 1655 Кбит/сек
Ширина : 720 пикселей
Высота : 300 пикселей
Соотношение сторон : 2,40:1
Режим частоты кадров : Постоянный
Частота кадров : 25,000 кадров/сек
Цветовое пространство : YUV
Субдискретизация насыщенности : 4:2:0
Битовая глубина : 8 бит
Тип развёртки : Прогрессивная
Бит/(Пиксели*Кадры) : 0.306
Размер потока : 1,53 Гбайт (70%)
Заголовок : by Vovan366(ExKinoRay)
Библиотека кодирования : x264 core 130 r2273 b3065e6
Настройки программы : cabac=1 / ref=9 / deblock=1:-3:-3 / analyse=0x3:0x133 / me=umh / subme=9 / psy=1 / psy_rd=1.00:0.15 / mixed_ref=1 / me_range=32 / chroma_me=1 / trellis=2 / 8x8dct=1 / cqm=0 / deadzone=21,11 / fast_pskip=0 / chroma_qp_offset=-3 / threads=6 / lookahead_threads=1 / sliced_threads=0 / nr=0 / decimate=0 / interlaced=0 / bluray_compat=0 / constrained_intra=0 / bframes=9 / b_pyramid=2 / b_adapt=2 / b_bias=0 / direct=3 / weightb=1 / open_gop=0 / weightp=2 / keyint=240 / keyint_min=24 / scenecut=40 / intra_refresh=0 / rc=2pass / mbtree=0 / bitrate=1655 / ratetol=1.0 / qcomp=0.60 / qpmin=0 / qpmax=69 / qpstep=4 / cplxblur=20.0 / qblur=0.5 / ip_ratio=1.40 / pb_ratio=1.30 / aq=1:1.00
Default : Да
Forced : Нет
Аудио #1
Идентификатор : 2
Формат : AC-3
Формат/Информация : Audio Coding 3
Расширение режима : CM (complete main)
Параметр Endianness формата : Big
Идентификатор кодека : A_AC3
Продолжительность : 2 ч. 15 м.
Вид битрейта : Постоянный
Битрейт : 448 Кбит/сек
Каналы : 6 каналов
Расположение каналов : Front: L C R, Side: L R, LFE
Частота : 48,0 КГц
Битовая глубина : 16 бит
Метод сжатия : С потерями
Размер потока : 435 Мбайт (20%)
Язык : Russian
Default : Да
Forced : Нет
Аудио #2
Идентификатор : 3
Формат : AC-3
Формат/Информация : Audio Coding 3
Расширение режима : CM (complete main)
Параметр Endianness формата : Big
Идентификатор кодека : A_AC3
Продолжительность : 2 ч. 15 м.
Вид битрейта : Постоянный
Битрейт : 192 Кбит/сек
Каналы : 2 канала
Расположение каналов : Front: L R
Частота : 48,0 КГц
Битовая глубина : 16 бит
Метод сжатия : С потерями
Размер потока : 186 Мбайт (8%)
Язык : French
Default : Нет
Forced : Нет



Релиз от:
Rip by: Vovan366



   Похожие торренты   Торрент   Размер 
В этой теме нет новых непрочитанных сообщений. Левиафан (2014) DVDRip-AVC от ExKinoRay

80 | 4

1.52 ГБ

В этой теме нет новых непрочитанных сообщений. Левиафан (2014) BDRip от ExKinoRay

1569 | 33

1.47 ГБ

В этой теме нет новых непрочитанных сообщений. Левиафан / Левиафан (2014) BDRip 1080p

296 | 27

14.95 ГБ

В этой теме нет новых непрочитанных сообщений. Левиафан (2014) DVDRip от Scarabey | Лицензия

984 | 34

2.05 ГБ

В этой теме нет новых непрочитанных сообщений. Левиафан / Leviathan (1989) DVDRip-AVC

27 | 3

1.45 ГБ

В этой теме нет новых непрочитанных сообщений. Левиафан (2014) Blu-Ray | Лицензия

71 | 12

40.59 ГБ

В этой теме нет новых непрочитанных сообщений. Левиафан (2014) WEBRip-AVC

3404 | 363

1.47 ГБ




Вы не можете начинать темы
Вы не можете отвечать на сообщения
Вы не можете редактировать свои сообщения
Вы не можете удалять свои сообщения
Вы не можете добавлять вложения

Перейти:  
Для Мосгорсуда, Роскомнадзора и рекламодателей: mosgorsud-torrent[собачка]yandex.ru
 Вход
ppkBB3cker v.2 © 2008-2014 @ PPK
[ Time : 0.041s | 18 Queries | GZIP : On ]

Торрент трекер RUTOR.IN, Не можете зайти на rutor.org? Какой новый адрес рутор? Какое зеркало рутор? Не работает rutor.org и зеркала? Тогда наш торрент специально для вас. Rutor.in неофициальное зеркало rutor. В случае если у Вас заблокирован rutor или вдруг Вы не можете на него зайти, то Вы без труда сможете скачать бесплатно и без рекламы последние новинки кино, игр, сериалов и прочего у нас, на Rutor.in. Не нужно использовать прокси, чтобы зайти на рутор, достаточно воспользоваться нашим ресурсом. Все новые фильмы, игры, сериалы, книги и музыка за 2013 и 2014 годы через торрент бесплатно. Скачивайте фильмы в хорошем качестве, игры для пк, xbox, playstation без регистрации. У нас вы найдете новые Зарубежные сериалы и Русские сериалы 2013, 2014, 2015 годов. Оставайтесь с нами, качайте любимые фильмы, игры, сериалы, книги и музыку.