img image001 image001 image001 image001 image001 image001 image001 image001 image001 image001 image001 image001 image001 image001 image001

Planets Sun Sun Sun
Статистика раздачи
Автор: Nickolas3434 | Размер: 1.52 ГБ | Добавлен: 11 фев 2015
Раздают: 80    Качают: 4
Скачать торрент
Скачать торрент
Описание торрента

СообщениеДобавлено: 11 фев 2015 

Информация о фильме
Название: Левиафан
Год выхода: 2014
Жанр: Драма
Режиссер: Андрей Звягинцев
В ролях: Алексей Серебряков, Елена Лядова, Владимир Вдовиченков, Роман Мадянов, Анна Уколова, Алексей Розин, Сергей Походаев, Валерий Гришко, Сергей Бачурский, Платон Каменев
О фильме:
Главный герой, Николай, живёт в маленьком городке близ Баренцева моря, в хижине на берегу небольшой бухты, куда порой заплывают киты. Когда продажный мэр города пытается конфисковать почти всё имущество Николая — дом, автомастерскую и его собственные земли — главный герой прибегает к помощи старого друга по армии, ныне уважаемого адвоката, Дмитрия, который определяет единственный способ борьбы с политиком — найти на него убойный компромат.

Страна: Россия
Студия: Нон-стоп Продакшн
Продолжительность: 02:15:48
Перевод: Оригинал
Файл
Кодек: х264
Качество: DVDRip(AVC)
Видео: MPEG-4 AVC, 1152 Кбит/с, 704x294
Аудио: AC3, 6 ch, 448 Кбит/с
Субтитры: Отсутствуют
raw [info]: 704x294p 1:1 @ 25/1 fps (cfr)
x264 [info]: using SAR=1/1
x264 [info]: using cpu capabilities: MMX2 SSE2Fast SSSE3 SSE4.2 AVX
x264 [info]: profile High, level 3.2
x264 [info]: frame I:1092 Avg QP:13.75 size: 39203
x264 [info]: frame P:38911 Avg QP:16.19 size: 13852
x264 [info]: frame B:163698 Avg QP:17.32 size: 3607
x264 [info]: consecutive B-frames: 1.1% 1.3% 5.0% 9.7% 11.2% 61.4% 5.7% 1.3% 1.5% 1.7%
x264 [info]: mb I I16..4: 13.1% 61.2% 25.7%
x264 [info]: mb P I16..4: 0.6% 9.2% 1.7% P16..4: 35.6% 24.9% 23.0% 1.3% 0.6% skip: 3.0%
x264 [info]: mb B I16..4: 0.1% 0.6% 0.1% B16..8: 32.0% 13.0% 4.1% direct: 9.1% skip:41.0% L0:36.2% L1:41.5% BI:22.3%
x264 [info]: 8x8 transform intra:76.5% inter:39.8%
x264 [info]: direct mvs spatial:97.4% temporal:2.6%
x264 [info]: coded y,uvDC,uvAC intra: 92.5% 95.0% 87.7% inter: 28.9% 38.1% 16.9%
x264 [info]: i16 v,h,dc,p: 36% 10% 25% 29%
x264 [info]: i8 v,h,dc,ddl,ddr,vr,hd,vl,hu: 19% 14% 16% 6% 8% 8% 9% 9% 12%
x264 [info]: i4 v,h,dc,ddl,ddr,vr,hd,vl,hu: 24% 10% 6% 8% 11% 11% 11% 9% 11%
x264 [info]: i8c dc,h,v,p: 50% 23% 16% 11%
x264 [info]: Weighted P-Frames: Y:4.0% UV:0.9%
x264 [info]: ref P L0: 43.3% 11.5% 20.5% 5.1% 6.2% 3.5% 4.5% 2.0% 2.9% 0.3% 0.0%
x264 [info]: ref B L0: 77.2% 12.2% 3.9% 2.4% 1.7% 1.5% 0.8% 0.3%
x264 [info]: ref B L1: 94.4% 5.6%
x264 [info]: kb/s:1150.94
x264 [total]: encoded 203701 frames, 17.78 fps, 1150.94 kb/s
Общее
Уникальный идентификатор : 234075671652370936028366536879565249677 (0xB01955A3ADB191099B38FE9331811C8D)
Полное имя : D:ВидеоLeviathan.2014.DVDRip-AVC by Vovan366(ExKinoRay).mkv
Формат : Matroska
Версия формата : Version 4 / Version 2
Размер файла : 1,52 Гбайт
Продолжительность : 2 ч. 15 м.
Общий поток : 1601 Кбит/сек
Название фильма : Leviathan.2014.DVDRip(AVC) by Vovan366(ExKinoRay)
Дата кодирования : UTC 2015-02-08 15:49:03
Программа кодирования : mkvmerge v7.5.0 ('Glass Culture') 64bit built on Jan 4 2015 16:48:44
Библиотека кодирования : libebml v1.3.1 + libmatroska v1.4.2
DURATION : 02:15:47.840000000
NUMBER_OF_FRAMES : 254620
NUMBER_OF_BYTES : 456279040
_STATISTICS_WRITING_APP : mkvmerge v7.5.0 ('Glass Culture') 64bit built on Jan 4 2015 16:48:44
_STATISTICS_WRITING_DATE_UTC : 2015-02-08 15:49:03
_STATISTICS_TAGS : BPS DURATION NUMBER_OF_FRAMES NUMBER_OF_BYTES
Видео
Идентификатор : 1
Формат : AVC
Формат/Информация : Advanced Video Codec
Профиль формата : High@L3.2
Параметр CABAC формата : Да
Параметр ReFrames формата : 9 кадров
Идентификатор кодека : V_MPEG4/ISO/AVC
Продолжительность : 2 ч. 15 м.
Битрейт : 1152 Кбит/сек
Ширина : 704 пикселя
Высота : 294 пикселя
Соотношение сторон : 2,40:1
Режим частоты кадров : Постоянный
Частота кадров : 25,000 кадров/сек
Цветовое пространство : YUV
Субдискретизация насыщенности : 4:2:0
Битовая глубина : 8 бит
Тип развёртки : Прогрессивная
Бит/(Пиксели*Кадры) : 0.223
Размер потока : 1,06 Гбайт (70%)
Заголовок : by Vovan366(ExKinoRay)
Библиотека кодирования : x264 core 130 r2273 b3065e6
Настройки программы : cabac=1 / ref=9 / deblock=1:-3:-3 / analyse=0x3:0x133 / me=umh / subme=9 / psy=1 / psy_rd=1.00:0.15 / mixed_ref=1 / me_range=32 / chroma_me=1 / trellis=2 / 8x8dct=1 / cqm=0 / deadzone=21,11 / fast_pskip=0 / chroma_qp_offset=-3 / threads=6 / lookahead_threads=1 / sliced_threads=0 / nr=0 / decimate=0 / interlaced=0 / bluray_compat=0 / constrained_intra=0 / bframes=9 / b_pyramid=2 / b_adapt=2 / b_bias=0 / direct=3 / weightb=1 / open_gop=0 / weightp=2 / keyint=240 / keyint_min=24 / scenecut=40 / intra_refresh=0 / rc=2pass / mbtree=0 / bitrate=1152 / ratetol=1.0 / qcomp=0.60 / qpmin=0 / qpmax=69 / qpstep=4 / cplxblur=20.0 / qblur=0.5 / ip_ratio=1.40 / pb_ratio=1.30 / aq=1:1.00
Default : Да
Forced : Нет
Аудио
Идентификатор : 2
Формат : AC-3
Формат/Информация : Audio Coding 3
Расширение режима : CM (complete main)
Параметр Endianness формата : Big
Идентификатор кодека : A_AC3
Продолжительность : 2 ч. 15 м.
Вид битрейта : Постоянный
Битрейт : 448 Кбит/сек
Каналы : 6 каналов
Расположение каналов : Front: L C R, Side: L R, LFE
Частота : 48,0 КГц
Битовая глубина : 16 бит
Метод сжатия : С потерями
Размер потока : 435 Мбайт (28%)
Язык : Russian
Default : Да
Forced : Нет



Релиз от:
Rip by: Vovan366



   Похожие торренты   Торрент   Размер 
В этой теме нет новых непрочитанных сообщений. Левиафан (2014) DVDRip-AVC от ExKinoRay

167 | 3

2.18 ГБ

В этой теме нет новых непрочитанных сообщений. Левиафан (2014) BDRip от ExKinoRay

1569 | 33

1.47 ГБ

В этой теме нет новых непрочитанных сообщений. Левиафан / Левиафан (2014) BDRip 1080p

296 | 27

14.95 ГБ

В этой теме нет новых непрочитанных сообщений. Левиафан (2014) DVDRip от Scarabey | Лицензия

984 | 34

2.05 ГБ

В этой теме нет новых непрочитанных сообщений. Левиафан / Leviathan (1989) DVDRip-AVC

27 | 3

1.45 ГБ

В этой теме нет новых непрочитанных сообщений. Левиафан (2014) WEBRip

11636 | 262

1.46 ГБ

В этой теме нет новых непрочитанных сообщений. Левиафан (2014) WEBRip-AVC

3404 | 363

1.47 ГБ




Вы не можете начинать темы
Вы не можете отвечать на сообщения
Вы не можете редактировать свои сообщения
Вы не можете удалять свои сообщения
Вы не можете добавлять вложения

Перейти:  
Для Мосгорсуда, Роскомнадзора и рекламодателей: mosgorsud-torrent[собачка]yandex.ru
 Вход
ppkBB3cker v.2 © 2008-2014 @ PPK
[ Time : 7.443s | 15 Queries | GZIP : Off ]

Торрент трекер RUTOR.IN, Не можете зайти на rutor.org? Какой новый адрес рутор? Какое зеркало рутор? Не работает rutor.org и зеркала? Тогда наш торрент специально для вас. Rutor.in неофициальное зеркало rutor. В случае если у Вас заблокирован rutor или вдруг Вы не можете на него зайти, то Вы без труда сможете скачать бесплатно и без рекламы последние новинки кино, игр, сериалов и прочего у нас, на Rutor.in. Не нужно использовать прокси, чтобы зайти на рутор, достаточно воспользоваться нашим ресурсом. Все новые фильмы, игры, сериалы, книги и музыка за 2013 и 2014 годы через торрент бесплатно. Скачивайте фильмы в хорошем качестве, игры для пк, xbox, playstation без регистрации. У нас вы найдете новые Зарубежные сериалы и Русские сериалы 2013, 2014, 2015 годов. Оставайтесь с нами, качайте любимые фильмы, игры, сериалы, книги и музыку.