img image001 image001 image001 image001 image001 image001 image001 image001 image001 image001 image001 image001 image001 image001 image001

Planets Sun Sun Sun
Статистика раздачи
Автор: Nickolas3434 | Размер: 2.04 ГБ | Добавлен: 11 фев 2015
Раздают: 58    Качают: 7
Скачать торрент
Скачать торрент
Описание торрента

СообщениеДобавлено: 11 фев 2015 

Информация о фильме
Название: Еще один год
Год выхода: 2014
Жанр: мелодрама
Режиссер: Оксана Бычкова
В ролях: Алексей Филимонов, Надежда Лумпова
О фильме:
История возникновения страстной любви сквозь боль, страдания и слезы. Вряд ли в арсенале человеческих чувств и эмоций найдется что-то ярче и желаннее, чем любовь и страсть. Они редко ходят по отдельности, все больше вместе, сплетаются в один узел и путают без того подчас сложные отношения. Он — бомбила, подрабатывающий по ночам, она — начинающий веб-дизайнер в модном СМИ. Любви в этих отношения сполна, но они из разных социальных слоев, у них разные интересы. Эти различия, в комбинации с бешеной страстью, постепенно достигают своего апогея. И все это происходит в течение года. Они маются, расстаются, сходятся, любят, ненавидят, занимаются любовью и снова убегают друг от друга и от себя. Что творится в головах и сердцах этих людей не понимает никто, но самое интересное, а знают ли они сами?

Страна: Россия / Gosfilmofond of Russia, Moscow, Multiland
Продолжительность: 01:47:33
Перевод: Оригинал [iTunes]
Файл
Кодек: XviD
Качество: WEB-DLRip (Исх. WEB-DL 1080p)
Видео: 704x384 (1.83:1), 24 fps, XviD build 73 ~2259 kbps avg, 0.35 bit/pixel
Звук: 48 kHz, AC3 Dolby Digital, 3/2 (L,C,R,l,r) + LFE ch, ~448.00 kbps avg
Субтитры: нет
Семпл
Общее
Полное имя : S:ФильмыЕще один год. 2014. WEB-DLRip. 2.05 (AleksSin).avi
Формат : AVI
Формат/Информация : Audio Video Interleave
Профиль формата : OpenDML
Размер файла : 2,04 Гбайт
Продолжительность : 1 ч. 47 м.
Общий поток : 2720 Кбит/сек
Программа кодирования : VirtualDubMod 1.5.10.3 | (build 2550/release)
Библиотека кодирования : VirtualDubMod build 2550/release
Видео
Идентификатор : 0
Формат : MPEG-4 Visual
Профиль формата : Advanced Simple@L5
Параметр BVOP формата : 1
Параметр QPel формата : Нет
Параметр GMC формата : Без точки перехода
Параметр матрицы формата : Выборочная
Идентификатор кодека : XVID
Идентификатор кодека/Подсказка : XviD
Продолжительность : 1 ч. 47 м.
Битрейт : 2259 Кбит/сек
Ширина : 704 пикс.
Высота : 384 пикс.
Соотношение сторон : 16:9
Частота кадров : 24,000 кадр/сек
Цветовое пространство : YUV
Подвыборка цветности : 4:2:0
Битовая глубина : 8 бит
Тип развёртки : Прогрессивная
Метод сжатия : С потерями
Бит/(Пиксели*Кадры) : 0.348
Размер потока : 1,70 Гбайт (83%)
Библиотека кодирования : XviD 73
Аудио
Идентификатор : 1
Формат : AC-3
Формат/Информация : Audio Coding 3
Расширение режима : CM (complete main)
Идентификатор кодека : 2000
Продолжительность : 1 ч. 47 м.
Вид битрейта : Постоянный
Битрейт : 448 Кбит/сек
Каналы : 6 каналов
Расположение каналов : Front: L C R, Side: L R, LFE
Частота : 48,0 КГц
Битовая глубина : 16 бит
Метод сжатия : С потерями
Размер потока : 345 Мбайт (16%)
Выравнивание : Разделение по промежуткам
Продолжительность промежутка : 42 мс. (1,00 видеокадр)
Время предзагрузки промежутка : 500 ms



Релиз от:



   Похожие торренты   Торрент   Размер 
В этой теме нет новых непрочитанных сообщений. Еще один год (2014) WEB-DLRip от BitTracker | iTunes

7 | 4

746.29 МБ

В этой теме нет новых непрочитанных сообщений. Вычислитель (2014) WEB-DLRip от BitTracker| iTunes

498 | 14

743.76 МБ

В этой теме нет новых непрочитанных сообщений. Общак / The Drop (2014) WEB-DLRip от BitTracker | iTunes

499 | 17

698.75 МБ

В этой теме нет новых непрочитанных сообщений. Виктор / Viktor (2014) WEB-DLRip | iTunes от BitTracker

158 | 10

699.7 МБ

В этой теме нет новых непрочитанных сообщений. Бивень / Tusk (2014) WEB-DLRip от BitTracker | iTunes

74 | 3

745.11 МБ

В этой теме нет новых непрочитанных сообщений. В моих мечтах / In My Dreams (2014) WEB-DLRip от BitTracker | iTunes

324 | 19

744.73 МБ

В этой теме нет новых непрочитанных сообщений. Хотел бы я быть здесь / Wish I Was Here (2014) WEB-DLRip от bittracker | iTunes

175 | 13

748.84 МБ




Вы не можете начинать темы
Вы не можете отвечать на сообщения
Вы не можете редактировать свои сообщения
Вы не можете удалять свои сообщения
Вы не можете добавлять вложения

Перейти:  
Для Мосгорсуда, Роскомнадзора и рекламодателей: mosgorsud-torrent[собачка]yandex.ru
 Вход
ppkBB3cker v.2 © 2008-2014 @ PPK
[ Time : 0.042s | 16 Queries | GZIP : Off ]

Торрент трекер RUTOR.IN, Не можете зайти на rutor.org? Какой новый адрес рутор? Какое зеркало рутор? Не работает rutor.org и зеркала? Тогда наш торрент специально для вас. Rutor.in неофициальное зеркало rutor. В случае если у Вас заблокирован rutor или вдруг Вы не можете на него зайти, то Вы без труда сможете скачать бесплатно и без рекламы последние новинки кино, игр, сериалов и прочего у нас, на Rutor.in. Не нужно использовать прокси, чтобы зайти на рутор, достаточно воспользоваться нашим ресурсом. Все новые фильмы, игры, сериалы, книги и музыка за 2013 и 2014 годы через торрент бесплатно. Скачивайте фильмы в хорошем качестве, игры для пк, xbox, playstation без регистрации. У нас вы найдете новые Зарубежные сериалы и Русские сериалы 2013, 2014, 2015 годов. Оставайтесь с нами, качайте любимые фильмы, игры, сериалы, книги и музыку.
cron