img image001 image001 image001 image001 image001 image001 image001 image001 image001 image001 image001 image001 image001 image001 image001

Planets Sun Sun Sun
Статистика раздачи
Автор: Nickolas3434 | Размер: 1.96 ГБ | Добавлен: 11 фев 2015
Раздают: 709    Качают: 21
Скачать торрент
Скачать торрент
Описание торрента

СообщениеДобавлено: 11 фев 2015 

Оригинальное название: Брат 2
Год выхода: 2000
Жанр: Боевик, драма, криминал
Режиссер: Алексей Балабанов
В ролях: Сергей Бодров мл., Виктор Сухоруков, Сергей Маковецкий, Ирина Салтыкова, Александр Дьяченко, Константин Желдин, Гэри Хьюстон, Рэй Толер, Лиза Джеффри, Иван Демидов, Олег Васильков, Валдис Пельш, Егор Пазенко, Дарья Юргенс (Лесникова), Александр Робак, Александр Наумов, Леонид Якубович, Ирина Домнинская, Вадим Вильский
О фильме: В Москве Данила встречает Костю и Илью, друзей по первой чеченской войне. Костя пытается помочь брату-близнецу, играющему в НХЛ, в Америке. У него серьезные проблемы с чикагской мафией. Внезапно Костю находят убитым. За дело берется Данила. Ему на помощь приезжает брат Виктор. Вместе они отправляются в Америку. Америка встретила их неприветливо. Братья начинают свою войну.
Страна: Россия, США
Студия: Кинокомпания СТВ
Продолжительность: 02:02:37
Язык: Русский
Кодек: MPEG-4 AVC
Качество: DVDRip-AVC
Видео: 768x452, 1835 Кбит/с, 25,000 fps
Звук: AC3, 6 ch, 448 Кбит/с
Семпл
General
Unique ID : 206232854519241170753623608291398057743 (0x9B2700C4D6795A7980175ED57C28FF0F)
Complete name : I:брат-2Брат-2.2000.x264.DVDRip.(AVC).mkv
Format : Matroska
Format version : Version 4 / Version 2
File size : 1.96 GiB
Duration : 2h 2mn
Overall bit rate : 2 285 Kbps
Movie name : Брат-2 / 2000 / Rip by PowerRock / ExKinoRay
Encoded date : UTC 2015-01-28 11:46:00
Writing application : mkvmerge v7.4.0 ('Circles') 64bit built on Dec 12 2014 12:19:56
Writing library : libebml v1.3.0 + libmatroska v1.4.1
DURATION : 02:02:37.024000000
NUMBER_OF_FRAMES : 229907
NUMBER_OF_BYTES : 411993344
_STATISTICS_WRITING_APP : mkvmerge v7.4.0 ('Circles') 64bit built on Dec 12 2014 12:19:56
_STATISTICS_WRITING_DATE_UTC : 2015-01-28 11:46:00
_STATISTICS_TAGS : BPS DURATION NUMBER_OF_FRAMES NUMBER_OF_BYTES
Video
ID : 1
Format : AVC
Format/Info : Advanced Video Codec
Format profile : High@L4.1
Format settings, CABAC : Yes
Format settings, ReFrames : 7 frames
Codec ID : V_MPEG4/ISO/AVC
Duration : 2h 2mn
Bit rate : 1 835 Kbps
Width : 768 pixels
Height : 452 pixels
Display aspect ratio : 1.699
Frame rate mode : Constant
Frame rate : 25.000 fps
Color space : YUV
Chroma subsampling : 4:2:0
Bit depth : 8 bits
Scan type : Progressive
Bits/(Pixel*Frame) : 0.211
Stream size : 1.53 GiB (78%)
Title : Брат-2 / 2000
Writing library : x264 core 130 r2273 b3065e6
Encoding settings : cabac=1 / ref=7 / deblock=1:-2:-1 / analyse=0x3:0x133 / me=umh / subme=10 / psy=1 / psy_rd=1.00:0.10 / mixed_ref=1 / me_range=32 / chroma_me=1 / trellis=2 / 8x8dct=1 / cqm=0 / deadzone=21,11 / fast_pskip=0 / chroma_qp_offset=-3 / threads=6 / lookahead_threads=1 / sliced_threads=0 / nr=0 / decimate=1 / interlaced=0 / bluray_compat=0 / constrained_intra=0 / bframes=8 / b_pyramid=2 / b_adapt=2 / b_bias=0 / direct=3 / weightb=1 / open_gop=0 / weightp=2 / keyint=250 / keyint_min=23 / scenecut=40 / intra_refresh=0 / rc_lookahead=50 / rc=2pass / mbtree=1 / bitrate=1835 / ratetol=1.0 / qcomp=0.60 / qpmin=10 / qpmax=51 / qpstep=4 / cplxblur=20.0 / qblur=0.5 / ip_ratio=1.40 / aq=1:1.00
Default : Yes
Forced : No
DURATION : 02:02:37.040000000
NUMBER_OF_FRAMES : 183926
NUMBER_OF_BYTES : 1687456108
_STATISTICS_WRITING_APP : mkvmerge v7.4.0 ('Circles') 64bit built on Dec 12 2014 12:19:56
_STATISTICS_WRITING_DATE_UTC : 2015-01-28 11:46:00
_STATISTICS_TAGS : BPS DURATION NUMBER_OF_FRAMES NUMBER_OF_BYTES
Audio
ID : 2
Format : AC-3
Format/Info : Audio Coding 3
Mode extension : CM (complete main)
Format settings, Endianness : Big
Codec ID : A_AC3
Duration : 2h 2mn
Bit rate mode : Constant
Bit rate : 448 Kbps
Channel(s) : 6 channels
Channel positions : Front: L C R, Side: L R, LFE
Sampling rate : 48.0 KHz
Bit depth : 16 bits
Compression mode : Lossy
Stream size : 393 MiB (20%)
Language : Russian
Default : Yes
Forced : No






   Похожие торренты   Торрент   Размер 
В этой теме нет новых непрочитанных сообщений. Брат 2 (2000) DVDRip

734 | 20

2.32 ГБ

В этой теме нет новых непрочитанных сообщений. Брат 2 (2000) DVDRip

760 | 35

1.45 ГБ

В этой теме нет новых непрочитанных сообщений. Брат 2 (2000) DVDRip-AVC от fandora

290 | 4

2.13 ГБ

В этой теме нет новых непрочитанных сообщений. Брат 2 (2000) DVDRip от SENATORiNFO-TEAM

1386 | 45

1.37 ГБ

В этой теме нет новых непрочитанных сообщений. Брат якудзы / Brother (2000) DVDRip

121 | 7

1.37 ГБ

В этой теме нет новых непрочитанных сообщений. Брат якудзы / Brother (2000) DVDRip

20 | 3

1.37 ГБ

В этой теме нет новых непрочитанных сообщений. Брат Якудзы / Brother (2000) DVDRip

0 | 1

691.99 МБ




Вы не можете начинать темы
Вы не можете отвечать на сообщения
Вы не можете редактировать свои сообщения
Вы не можете удалять свои сообщения
Вы не можете добавлять вложения

Перейти:  
Для Мосгорсуда, Роскомнадзора и рекламодателей: mosgorsud-torrent[собачка]yandex.ru
 Вход
ppkBB3cker v.2 © 2008-2014 @ PPK
[ Time : 0.022s | 15 Queries | GZIP : Off ]
CGP output time : 0.090s | 5 Queries | GZIP : Off

Торрент трекер RUTOR.IN, Не можете зайти на rutor.org? Какой новый адрес рутор? Какое зеркало рутор? Не работает rutor.org и зеркала? Тогда наш торрент специально для вас. Rutor.in неофициальное зеркало rutor. В случае если у Вас заблокирован rutor или вдруг Вы не можете на него зайти, то Вы без труда сможете скачать бесплатно и без рекламы последние новинки кино, игр, сериалов и прочего у нас, на Rutor.in. Не нужно использовать прокси, чтобы зайти на рутор, достаточно воспользоваться нашим ресурсом. Все новые фильмы, игры, сериалы, книги и музыка за 2013 и 2014 годы через торрент бесплатно. Скачивайте фильмы в хорошем качестве, игры для пк, xbox, playstation без регистрации. У нас вы найдете новые Зарубежные сериалы и Русские сериалы 2013, 2014, 2015 годов. Оставайтесь с нами, качайте любимые фильмы, игры, сериалы, книги и музыку.