img image001 image001 image001 image001 image001 image001 image001 image001 image001 image001 image001 image001 image001 image001 image001

Planets Sun Sun Sun
Статистика раздачи
Автор: Nickolas3434 | Размер: 2.56 ГБ | Добавлен: 14 фев 2015
Раздают: 3461    Качают: 148
Скачать торрент
Скачать торрент
Описание торрента

СообщениеДобавлено: 14 фев 2015 

Информация о фильме
Оригинальное название: Левиафан
Год выпуска: 2014
Жанр: Драма
Режиссер: Андрей Звягинцев
В ролях: Алексей Серебряков, Елена Лядова, Владимир Вдовиченков, Роман Мадянов, Анна Уколова, Алексей Розин, Сергей Походаев, Платон Каменев, Сергей Бачурский, Валерий Гришко, Алла Еминцева, Маргарита Шубина, Дмитрий Быковский-Ромашов, Сергей Борисов, Игорь Савочкин, Игорь Сергеев, Константин Телегин, Ольга Лапшина, Мария Скорницкая, Ирина Рындина
Описание: Главный герой, автослесарь Николай Сергеев, живёт вместе с женой Лилией и сыном от первой жены Романом в маленьком городке Прибрежный близ Баренцева моря, в доме на берегу небольшой бухты, куда порой заплывают киты, и поддерживает приятельские отношения с местным полицейским Поливановым и его супругой. Когда коррумпированный мэр города Вадим Шелевят пытается изъять практически всё имущество Николая — дом, автомастерскую и его собственные земли, главный герой прибегает к помощи старого друга по армии Дмитрия Селезнёва, ныне уважаемого столичного адвоката. После того, как суд во второй раз выносит решение в пользу мэра, Дмитрий определяет единственный способ борьбы с политиком — найти на него убойный компромат.

Выпущено: Россия / Нон-стоп Продакшн
Продолжительность: 02:21:27
Файл
Качество: BDRip (AVC)
Видео: MPEG-4 AVC, 1700 Кбит/с, 1024x428, 24.000 кадр/с
Аудио #1: Русский (AC3, 6 ch, 448 Кбит/с)
Аудио #2: Французский (AC3, 6 ch, 448 Кбит/с) / Дублированный
Субтитры: Английские, французские
Семпл

x264 [info]: frame I:1062 Avg QP:14.44 size: 74889
x264 [info]: frame P:36203 Avg QP:17.85 size: 20286
x264 [info]: frame B:166424 Avg QP:18.90 size: 5900
x264 [info]: consecutive B-frames: 1.2% 1.1% 3.5% 8.0% 13.0% 46.6% 9.2% 4.0% 2.9% 1.6% 2.0% 2.5% 1.6% 1.2% 0.7% 0.8%
***********************************************************************************************************************************************
Общее
Уникальный идентификатор : 191359581756457872635600626750340713240 (0x8FF683CE319E00AA878BC9222FB3CB18)
Полное имя : D:Mои раздачиLeviafan.2014.BDRip.(AVC)-MediaClub.mkv
Формат : Matroska
Версия формата : Version 4 / Version 2
Размер файла : 2,56 Гбайт
Продолжительность : 2 ч. 21 м.
Общий поток : 2591 Кбит/сек
Название фильма : -=MediaClub-kaspr=-
Дата кодирования : UTC 2015-02-12 11:55:06
Программа кодирования : mkvmerge v6.9.1 ('Blue Panther') 64bit built on Apr 18 2014 18:23:38
Библиотека кодирования : libebml v1.3.0 + libmatroska v1.4.1
Видео
Идентификатор : 1
Формат : AVC
Формат/Информация : Advanced Video Codec
Профиль формата : High@L4.1
Параметр CABAC формата : Да
Параметр ReFrames формата : 10 кадров
Идентификатор кодека : V_MPEG4/ISO/AVC
Продолжительность : 2 ч. 21 м.
Битрейт : 1700 Кбит/сек
Ширина : 1024 пикселя
Высота : 428 пикселей
Соотношение сторон : 2,40:1
Режим частоты кадров : Постоянный
Частота кадров : 24,000 кадра/сек
Цветовое пространство : YUV
Субдискретизация насыщенности : 4:2:0
Битовая глубина : 8 бит
Тип развёртки : Прогрессивная
Бит/(Пиксели*Кадры) : 0.162
Размер потока : 1,62 Гбайт (63%)
Заголовок : -=MediaClub-kaspr=-
Библиотека кодирования : x264 core 142 r2431+42 c69a006 tMod [8-bit@4:2:0 X86_64]
Настройки программы : cabac=1 / ref=10 / deblock=1:-3:-3 / analyse=0x3:0x113 / me=umh / subme=11 / psy=1 / fade_compensate=0.00 / psy_rd=1.00:0.20 / mixed_ref=1 / me_range=32 / chroma_me=1 / trellis=2 / 8x8dct=1 / cqm=0 / deadzone=21,11 / fast_pskip=0 / chroma_qp_offset=-3 / threads=12 / lookahead_threads=3 / sliced_threads=0 / nr=0 / decimate=0 / interlaced=0 / bluray_compat=0 / constrained_intra=0 / fgo=0 / bframes=15 / b_pyramid=2 / b_adapt=2 / b_bias=0 / direct=3 / weightb=1 / open_gop=0 / weightp=2 / keyint=240 / keyint_min=24 / scenecut=40 / intra_refresh=0 / rc=2pass / mbtree=0 / bitrate=1700 / ratetol=1.0 / qcomp=0.60 / qpmin=0:0:0 / qpmax=69:69:69 / qpstep=4 / cplxblur=20.0 / qblur=0.5 / ip_ratio=1.40 / pb_ratio=1.30 / aq=4:0.80 / aq-sensitivity=10.00 / aq-factor=1.00:1.00:1.00 / aq2=0 / aq3=0
Default : Да
Forced : Нет
Аудио #1
Идентификатор : 2
Формат : AC-3
Формат/Информация : Audio Coding 3
Расширение режима : CM (complete main)
Параметр Endianness формата : Big
Идентификатор кодека : A_AC3
Продолжительность : 2 ч. 21 м.
Вид битрейта : Постоянный
Битрейт : 448 Кбит/сек
Каналы : 6 каналов
Расположение каналов : Front: L C R, Side: L R, LFE
Частота : 48,0 КГц
Битовая глубина : 16 бит
Метод сжатия : С потерями
Размер потока : 453 Мбайт (17%)
Язык : Russian
Default : Да
Forced : Нет
Аудио #2
Идентификатор : 3
Формат : AC-3
Формат/Информация : Audio Coding 3
Расширение режима : CM (complete main)
Параметр Endianness формата : Big
Идентификатор кодека : A_AC3
Продолжительность : 2 ч. 21 м.
Вид битрейта : Постоянный
Битрейт : 448 Кбит/сек
Каналы : 6 каналов
Расположение каналов : Front: L C R, Side: L R, LFE
Частота : 48,0 КГц
Битовая глубина : 16 бит
Метод сжатия : С потерями
Размер потока : 453 Мбайт (17%)
Язык : French
Default : Нет
Forced : Нет
Текст #1
Идентификатор : 4
Формат : UTF-8
Идентификатор кодека : S_TEXT/UTF8
Идентификатор кодека/Информация : UTF-8 Plain Text
Язык : English
Default : Нет
Forced : Нет
Текст #2
Идентификатор : 5
Формат : UTF-8
Идентификатор кодека : S_TEXT/UTF8
Идентификатор кодека/Информация : UTF-8 Plain Text
Язык : French
Default : Нет
Forced : Нет
Меню
00:00:00.000 : en:Chapter 01
00:08:24.500 : en:Chapter 02
00:16:40.166 : en:Chapter 03
00:23:08.083 : en:Chapter 04
00:35:43.208 : en:Chapter 05
00:50:59.875 : en:Chapter 06
01:00:51.541 : en:Chapter 07
01:11:55.166 : en:Chapter 08
01:21:45.208 : en:Chapter 09
01:31:40.875 : en:Chapter 10
01:44:06.500 : en:Chapter 11
01:55:06.875 : en:Chapter 12
02:05:50.500 : en:Chapter 13

Релиз: |



   Похожие торренты   Торрент   Размер 
В этой теме нет новых непрочитанных сообщений. Левиафан / Левиафан (2014) BDRip 1080p

296 | 27

14.95 ГБ

В этой теме нет новых непрочитанных сообщений. Левиафан (2014) BDRip 720p | Лицензия

1196 | 14

9.39 ГБ

В этой теме нет новых непрочитанных сообщений. Левиафан (2014) BDRip 1080p от Leonardo and Scarabey | Лицензия

1481 | 32

11.1 ГБ

В этой теме нет новых непрочитанных сообщений. Левиафан (2014) BDRip 720p от Leonardo and Scarabey | Лицензия

2239 | 75

3.26 ГБ

В этой теме нет новых непрочитанных сообщений. Левиафан / Leviathan (1989) BDRip 720p от MediaClub | P, A

94 | 18

6.18 ГБ

В этой теме нет новых непрочитанных сообщений. Левиафан (2014) Blu-Ray | Лицензия

71 | 12

40.59 ГБ

В этой теме нет новых непрочитанных сообщений. Левиафан (2014) DVD5 | Лицензия

71 | 11

4.31 ГБ




Вы не можете начинать темы
Вы не можете отвечать на сообщения
Вы не можете редактировать свои сообщения
Вы не можете удалять свои сообщения
Вы не можете добавлять вложения

Перейти:  
Для Мосгорсуда, Роскомнадзора и рекламодателей: mosgorsud-torrent[собачка]yandex.ru
 Вход
ppkBB3cker v.2 © 2008-2014 @ PPK
[ Time : 0.050s | 16 Queries | GZIP : Off ]

Торрент трекер RUTOR.IN, Не можете зайти на rutor.org? Какой новый адрес рутор? Какое зеркало рутор? Не работает rutor.org и зеркала? Тогда наш торрент специально для вас. Rutor.in неофициальное зеркало rutor. В случае если у Вас заблокирован rutor или вдруг Вы не можете на него зайти, то Вы без труда сможете скачать бесплатно и без рекламы последние новинки кино, игр, сериалов и прочего у нас, на Rutor.in. Не нужно использовать прокси, чтобы зайти на рутор, достаточно воспользоваться нашим ресурсом. Все новые фильмы, игры, сериалы, книги и музыка за 2013 и 2014 годы через торрент бесплатно. Скачивайте фильмы в хорошем качестве, игры для пк, xbox, playstation без регистрации. У нас вы найдете новые Зарубежные сериалы и Русские сериалы 2013, 2014, 2015 годов. Оставайтесь с нами, качайте любимые фильмы, игры, сериалы, книги и музыку.