img image001 image001 image001 image001 image001 image001 image001 image001 image001 image001 image001 image001 image001 image001 image001

Planets Sun Sun Sun
Статистика раздачи
Автор: Nickolas3434 | Размер: 1.47 ГБ | Добавлен: 13 фев 2015
Раздают: 1569    Качают: 33
Скачать торрент
Скачать торрент
Описание торрента

СообщениеДобавлено: 13 фев 2015 

Информация о фильме
Название: Левиафан
Год выхода: 2014
Жанр: Драма
Режиссер: Андрей Звягинцев
В ролях: Алексей Серебряков, Елена Лядова, Владимир Вдовиченков, Роман Мадянов, Анна Уколова, Алексей Розин, Сергей Походаев, Валерий Гришко, Сергей Бачурский, Платон Каменев
О фильме:
Главный герой, Николай, живёт в маленьком городке близ Баренцева моря, в хижине на берегу небольшой бухты, куда порой заплывают киты. Когда продажный мэр города пытается конфисковать почти всё имущество Николая — дом, автомастерскую и его собственные земли — главный герой прибегает к помощи старого друга по армии, ныне уважаемого адвоката, Дмитрия, который определяет единственный способ борьбы с политиком — найти на него убойный компромат.

Страна: Россия
Студия: Нон-стоп Продакшн
Продолжительность: 02:21:27
Перевод: Оригинал
Файл
Кодек: XviD
Качество: BDRip(Blu-ray [FRE])
Видео: 720x304 (2,35:1), 24,000 fps, XviD 73 ~1282 kbps avg, 0.244 bit/pixel
Аудио: AC3, 2 ch, 192 Кбит/с
Субтитры: Отсутствуют
Общее
Полное имя : D:ВидеоLeviathan.2014.BDRip by Vovan366(ExKinoRay).avi
Формат : AVI
Формат/Информация : Audio Video Interleave
Размер файла : 1,47 Гбайт
Продолжительность : 2 ч. 21 м.
Общий поток : 1483 Кбит/сек
Программа кодирования : VirtualDubMod 1.5.10.3 | www.virtualdub-fr.org || (build 2550/release)
Библиотека кодирования : VirtualDubMod build 2550/release
Видео
Идентификатор : 0
Формат : MPEG-4 Visual
Профиль формата : Advanced Simple@L5
Параметр BVOP формата : 2
Параметр QPel формата : Нет
Параметр GMC формата : Без точки перехода
Параметр матрицы формата : Выборочная
Идентификатор кодека : XVID
Идентификатор кодека/Подсказка : XviD
Продолжительность : 2 ч. 21 м.
Битрейт : 1282 Кбит/сек
Ширина : 720 пикселей
Высота : 304 пикселя
Соотношение сторон : 2,35:1
Частота кадров : 24,000 кадра/сек
Цветовое пространство : YUV
Субдискретизация насыщенности : 4:2:0
Битовая глубина : 8 бит
Тип развёртки : Прогрессивная
Метод сжатия : С потерями
Бит/(Пиксели*Кадры) : 0.244
Размер потока : 1,27 Гбайт (86%)
Библиотека кодирования : XviD 73
Аудио
Идентификатор : 1
Формат : AC-3
Формат/Информация : Audio Coding 3
Расширение режима : CM (complete main)
Параметр Endianness формата : Big
Идентификатор кодека : 2000
Продолжительность : 2 ч. 21 м.
Вид битрейта : Постоянный
Битрейт : 192 Кбит/сек
Каналы : 2 канала
Расположение каналов : Front: L R
Частота : 48,0 КГц
Битовая глубина : 16 бит
Метод сжатия : С потерями
Размер потока : 194 Мбайт (13%)
Выравнивание : Разделение по промежуткам
Продолжительность промежутка : 42 мс. (1,00 видеокадр)
Время предзагрузки промежутка : 500 мс.



Релиз от:
Rip by: Vovan366



   Похожие торренты   Торрент   Размер 
В этой теме нет новых непрочитанных сообщений. Левиафан / Левиафан (2014) BDRip 1080p

296 | 27

14.95 ГБ

В этой теме нет новых непрочитанных сообщений. Левиафан (2014) DVDRip-AVC от ExKinoRay

167 | 3

2.18 ГБ

В этой теме нет новых непрочитанных сообщений. Левиафан (2014) DVDRip-AVC от ExKinoRay

80 | 4

1.52 ГБ

В этой теме нет новых непрочитанных сообщений. Левиафан (2014) BDRip от HQCLUB

1375 | 40

2.18 ГБ

В этой теме нет новых непрочитанных сообщений. Левиафан (2014) BDRip-AVC от MediaClub | Лицензия

2548 | 124

2.56 ГБ

В этой теме нет новых непрочитанных сообщений. Левиафан (2014) BDRip 720p | Лицензия

1196 | 14

9.39 ГБ

В этой теме нет новых непрочитанных сообщений. Левиафан (2014) BDRip 720p | дополнительные материалы

53 | 69

1.32 ГБ




Вы не можете начинать темы
Вы не можете отвечать на сообщения
Вы не можете редактировать свои сообщения
Вы не можете удалять свои сообщения
Вы не можете добавлять вложения

Перейти:  
Для Мосгорсуда, Роскомнадзора и рекламодателей: mosgorsud-torrent[собачка]yandex.ru
 Вход
ppkBB3cker v.2 © 2008-2014 @ PPK
[ Time : 0.043s | 16 Queries | GZIP : Off ]

cron