img image001 image001 image001 image001 image001 image001 image001 image001 image001 image001 image001 image001 image001 image001 image001

Planets Sun Sun Sun
Статистика раздачи
Автор: Nickolas3434 | Размер: 1.37 ГБ | Добавлен: 14 фев 2015
Раздают: 940    Качают: 40
Скачать торрент
Скачать торрент
Описание торрента

СообщениеДобавлено: 14 фев 2015 

Информация о фильме
Оригинальное название: Мамы 3
Год выхода: 2014
Жанр: Комедия, семейный
Режиссёр: Георгий Малков, Эмиль Никогосян
В ролях: Анастасия Заворотнюк, Ольга Волкова, Мария Сёмкина, Гарик Харламов, Андрей Ургант, Тимур Родригез, Евгений Сморигин, Евгений Шапошников, Кристина Орса, Захар Соколов
О фильме: 31 декабря наши Мамы вместо того, чтобы резать оливье и смотреть «Иронию Судьбы», летят в Прагу праздновать Новый Год «по-европейски». Но самолет из-за погодных условий вынужден приземлиться в аэропорту небольшого, но очень красивого и уютного польского городка. Город встречает Мам абсолютно пустыми улицами. Новый Год для местных жителей- спокойный праздник. Наших Мам и их попутчиков это категорически не устраивает, и они решают устроить в этой «провинциальной Европе» настоящий, безбашенный Новый Год «по-нашему»... Дело за малым - найти Деда Мороза, Советское шампанское, оливье, петарды... в общем, всё, что нужно для праздника!

Выпущено: Россия, Централ Партнершип
Продолжительность: 01:32:00
Перевод: Не требуется
Файл
Качество: HDRip [Исходник: BDRip (720p)]
Видео: XviD, 1670 Кбит/с, 720x304 (2.35:1), 24 кадр/с
Аудио: Русский, Dolby AC3, 48000 Гц, 448 Кбит/с, 6 каналов (5.1) - Оригинал
Субтитры: Нет

General
Complete name : Mam1.3.2014.O.BDRip.1400MB.avi
Format : AVI
Format/Info : Audio Video Interleave
File size : 1.37 GiB
Duration : 1h 32mn
Overall bit rate : 2 127 Kbps
Writing application : VirtualDubMod 1.5.10.2 (build 2540/release)
Writing library : VirtualDubMod build 2540/release
Video
ID : 0
Format : MPEG-4 Visual
Format profile : Advanced Simple@L5
Format settings, BVOP : 2
Format settings, QPel : No
Format settings, GMC : No warppoints
Format settings, Matrix : Default (MPEG)
Codec ID : XVID
Codec ID/Hint : XviD
Duration : 1h 32mn
Bit rate : 1 670 Kbps
Width : 720 pixels
Height : 304 pixels
Display aspect ratio : 2.35:1
Frame rate : 24.000 fps
Color space : YUV
Chroma subsampling : 4:2:0
Bit depth : 8 bits
Scan type : Progressive
Compression mode : Lossy
Bits/(Pixel*Frame) : 0.318
Stream size : 1.07 GiB (78%)
Writing library : XviD 1.2.1 (UTC 2008-12-04)
Audio
ID : 1
Format : AC-3
Format/Info : Audio Coding 3
Mode extension : CM (complete main)
Codec ID : 2000
Duration : 1h 31mn
Bit rate mode : Constant
Bit rate : 448 Kbps
Channel(s) : 6 channels
Channel positions : Front: L C R, Side: L R, LFE
Sampling rate : 48.0 KHz
Bit depth : 16 bits
Compression mode : Lossy
Stream size : 295 MiB (21%)
Alignment : Split accross interleaves
Interleave, duration : 42 ms (1.00 video frame)
Interleave, preload duration : 500 ms






   Похожие торренты   Торрент   Размер 
В этой теме нет новых непрочитанных сообщений. Мамы 3 (2014) HDRip от Scarabey | Лицензия

1890 | 32

1.45 ГБ

В этой теме нет новых непрочитанных сообщений. Мамы 3 (2014) HDRip от Scarabey | Лицензия

714 | 12

743.53 МБ

В этой теме нет новых непрочитанных сообщений. Мамы 3 (2014) HDRip от ivandubskoj | Лицензия

70 | 7

744.07 МБ

В этой теме нет новых непрочитанных сообщений. С новым годом, мамы! (2012) HDRip | Лицензия

4 | 3

696.61 МБ

В этой теме нет новых непрочитанных сообщений. Мамы 3 (2014) BDRip от HQCLUB | Лицензия

507 | 11

1.45 ГБ

В этой теме нет новых непрочитанных сообщений. Мамы 3 (2014) НDRip-AVC от ExKinoRay | Лицензия

34 | 5

1.46 ГБ

В этой теме нет новых непрочитанных сообщений. Мамы 3 (2014) BDRip от ivandubskoj | Лицензия

57 | 6

746.25 МБ




Вы не можете начинать темы
Вы не можете отвечать на сообщения
Вы не можете редактировать свои сообщения
Вы не можете удалять свои сообщения
Вы не можете добавлять вложения

Перейти:  
Для Мосгорсуда, Роскомнадзора и рекламодателей: mosgorsud-torrent[собачка]yandex.ru
 Вход
ppkBB3cker v.2 © 2008-2014 @ PPK
[ Time : 0.022s | 15 Queries | GZIP : Off ]

Торрент трекер RUTOR.IN, Не можете зайти на rutor.org? Какой новый адрес рутор? Какое зеркало рутор? Не работает rutor.org и зеркала? Тогда наш торрент специально для вас. Rutor.in неофициальное зеркало rutor. В случае если у Вас заблокирован rutor или вдруг Вы не можете на него зайти, то Вы без труда сможете скачать бесплатно и без рекламы последние новинки кино, игр, сериалов и прочего у нас, на Rutor.in. Не нужно использовать прокси, чтобы зайти на рутор, достаточно воспользоваться нашим ресурсом. Все новые фильмы, игры, сериалы, книги и музыка за 2013 и 2014 годы через торрент бесплатно. Скачивайте фильмы в хорошем качестве, игры для пк, xbox, playstation без регистрации. У нас вы найдете новые Зарубежные сериалы и Русские сериалы 2013, 2014, 2015 годов. Оставайтесь с нами, качайте любимые фильмы, игры, сериалы, книги и музыку.