img image001 image001 image001 image001 image001 image001 image001 image001 image001 image001 image001 image001 image001 image001 image001

Planets Sun Sun Sun
Статистика раздачи
Автор: Nickolas3434 | Размер: 1.46 ГБ | Добавлен: 16 фев 2015
Раздают: 34    Качают: 5
Скачать торрент
Скачать торрент
Описание торрента

СообщениеДобавлено: 16 фев 2015 

Информация о фильме
Название: Мамы 3
Год выхода: 2014
Жанр: комедия, семейный
Режиссер: Георгий Малков, Эмиль Никогосян
В ролях: Гарик Харламов, Ольга Волкова, Мария Сёмкина, Андрей Ургант, Евгений Шапошников, Артём Киселёв, Кристина Орса, Анастасия Заворотнюк, Тимур Родригез, Евгений Сморигин, Захар Соколов
О фильме: 31 декабря наши Мамы вместо того, чтобы резать оливье и смотреть «Иронию Судьбы», летят в Прагу праздновать Новый Год «по-европейски». Но самолет из-за погодных условий вынужден приземлиться в аэропорту небольшого, но очень красивого и уютного польского городка. Город встречает Мам абсолютно пустыми улицами. Новый Год для местных жителей- спокойный праздник. Наших Мам и их попутчиков это категорически не устраивает, и они решают устроить в этой «провинциальной Европе» настоящий, безбашенный Новый Год «по-нашему»… Дело за малым — найти Деда Мороза, Советское шампанское, оливье, петарды… в общем, всё, что нужно для праздника!

Выпущено: Россия
Продолжительность: 01:32:00
Озвучивание: Оригинал
Файл
Кодек: x264
Качество: НDRip(AVC)
Видео: MPEG-4 AVC, 1884 Кбит/с, 720x306
Звук: AC3, 6 ch, 384 Кбит/с
Общее
Уникальный идентификатор : 176298176332929818459920025555422502929 (0x84A1CB2F886E92D2BE6A4BBEDBC96011)
Полное имя : D:ВидеоMam1.3.2014.НDRip(AVC) by Vovan366(ExKinoRay).mkv
Формат : Matroska
Версия формата : Version 4 / Version 2
Размер файла : 1,46 Гбайт
Продолжительность : 1 ч. 32 м.
Общий поток : 2268 Кбит/сек
Название фильма : Mam1.3.2014.НDRip(AVC) by Vovan366(ExKinoRay)
Дата кодирования : UTC 2015-02-13 18:03:39
Программа кодирования : mkvmerge v7.5.0 ('Glass Culture') 64bit built on Jan 4 2015 16:48:44
Библиотека кодирования : libebml v1.3.1 + libmatroska v1.4.2
DURATION : 01:31:59.968000000
NUMBER_OF_FRAMES : 172499
NUMBER_OF_BYTES : 264958464
_STATISTICS_WRITING_APP : mkvmerge v7.5.0 ('Glass Culture') 64bit built on Jan 4 2015 16:48:44
_STATISTICS_WRITING_DATE_UTC : 2015-02-13 18:03:39
_STATISTICS_TAGS : BPS DURATION NUMBER_OF_FRAMES NUMBER_OF_BYTES
Видео
Идентификатор : 1
Формат : AVC
Формат/Информация : Advanced Video Codec
Профиль формата : High@L4.1
Параметр CABAC формата : Да
Параметр ReFrames формата : 9 кадров
Идентификатор кодека : V_MPEG4/ISO/AVC
Продолжительность : 1 ч. 32 м.
Битрейт : 1884 Кбит/сек
Ширина : 720 пикселей
Высота : 306 пикселей
Соотношение сторон : 2,35:1
Режим частоты кадров : Постоянный
Частота кадров : 24,000 кадра/сек
Цветовое пространство : YUV
Субдискретизация насыщенности : 4:2:0
Битовая глубина : 8 бит
Тип развёртки : Прогрессивная
Бит/(Пиксели*Кадры) : 0.356
Размер потока : 1,18 Гбайт (81%)
Заголовок : by Vovan366(ExKinoRay)
Библиотека кодирования : x264 core 130 r2273 b3065e6
Настройки программы : cabac=1 / ref=9 / deblock=1:-3:-3 / analyse=0x3:0x133 / me=umh / subme=10 / psy=1 / psy_rd=1.00:0.15 / mixed_ref=1 / me_range=32 / chroma_me=1 / trellis=2 / 8x8dct=1 / cqm=0 / deadzone=21,11 / fast_pskip=0 / chroma_qp_offset=-3 / threads=6 / lookahead_threads=1 / sliced_threads=0 / nr=0 / decimate=0 / interlaced=0 / bluray_compat=0 / constrained_intra=0 / bframes=9 / b_pyramid=2 / b_adapt=2 / b_bias=0 / direct=3 / weightb=1 / open_gop=0 / weightp=2 / keyint=250 / keyint_min=23 / scenecut=40 / intra_refresh=0 / rc=2pass / mbtree=0 / bitrate=1884 / ratetol=1.0 / qcomp=0.60 / qpmin=0 / qpmax=69 / qpstep=4 / cplxblur=20.0 / qblur=0.5 / ip_ratio=1.40 / pb_ratio=1.30 / aq=1:1.00
Default : Да
Forced : Нет
Аудио
Идентификатор : 2
Формат : AC-3
Формат/Информация : Audio Coding 3
Расширение режима : CM (complete main)
Параметр Endianness формата : Big
Идентификатор кодека : A_AC3
Продолжительность : 1 ч. 32 м.
Вид битрейта : Постоянный
Битрейт : 384 Кбит/сек
Каналы : 6 каналов
Расположение каналов : Front: L C R, Side: L R, LFE
Частота : 48,0 КГц
Битовая глубина : 16 бит
Метод сжатия : С потерями
Размер потока : 253 Мбайт (17%)
Язык : Russian
Default : Да
Forced : Нет
Меню
00:00:00.000 : ru:
00:07:28.541 : ru:
00:15:00.833 : ru:
00:22:23.000 : ru:
00:29:48.666 : ru:
00:35:01.375 : ru:
00:42:32.333 : ru:
00:49:40.833 : ru:
00:56:24.416 : ru:
01:02:51.583 : ru:
01:10:02.125 : ru:
01:20:35.375 : ru:



Релиз от:
Rip by: Vovan366



   Похожие торренты   Торрент   Размер 
В этой теме нет новых непрочитанных сообщений. С новым годом, мамы! (2012) НDRip от Scarabey | Лицензия

41 | 2

740.69 МБ

В этой теме нет новых непрочитанных сообщений. С новым годом, мамы! (2012) НDRip от Scarabey | Лицензия

320 | 11

1.45 ГБ

В этой теме нет новых непрочитанных сообщений. Мамы 3 (2014) BDRip 720p от ExKinoRay | Лицензия

53 | 8

3.88 ГБ

В этой теме нет новых непрочитанных сообщений. Дневник мамы первоклассника (2014) DVDRip-AVC от ExKinoRay | Лицензия

851 | 49

1.37 ГБ

В этой теме нет новых непрочитанных сообщений. Люси / Lucy (2014) НDRip от ExKinoRay | Лицензия

151 | 19

744.36 МБ

В этой теме нет новых непрочитанных сообщений. Мамы 3 (2014) WEB-DLRip-AVC от ExKinoRay | iTunes

164 | 3

1.46 ГБ

В этой теме нет новых непрочитанных сообщений. Форсаж 7 / Furious Seven (2015) НDRip-AVC от ExKinoRay | Extended cut | Лицензия

724 | 39

744.49 МБ




Вы не можете начинать темы
Вы не можете отвечать на сообщения
Вы не можете редактировать свои сообщения
Вы не можете удалять свои сообщения
Вы не можете добавлять вложения

Перейти:  
Для Мосгорсуда, Роскомнадзора и рекламодателей: mosgorsud-torrent[собачка]yandex.ru
 Вход
ppkBB3cker v.2 © 2008-2014 @ PPK
[ Time : 0.052s | 18 Queries | GZIP : Off ]

Торрент трекер RUTOR.IN, Не можете зайти на rutor.org? Какой новый адрес рутор? Какое зеркало рутор? Не работает rutor.org и зеркала? Тогда наш торрент специально для вас. Rutor.in неофициальное зеркало rutor. В случае если у Вас заблокирован rutor или вдруг Вы не можете на него зайти, то Вы без труда сможете скачать бесплатно и без рекламы последние новинки кино, игр, сериалов и прочего у нас, на Rutor.in. Не нужно использовать прокси, чтобы зайти на рутор, достаточно воспользоваться нашим ресурсом. Все новые фильмы, игры, сериалы, книги и музыка за 2013 и 2014 годы через торрент бесплатно. Скачивайте фильмы в хорошем качестве, игры для пк, xbox, playstation без регистрации. У нас вы найдете новые Зарубежные сериалы и Русские сериалы 2013, 2014, 2015 годов. Оставайтесь с нами, качайте любимые фильмы, игры, сериалы, книги и музыку.
cron