img image001 image001 image001 image001 image001 image001 image001 image001 image001 image001 image001 image001 image001 image001 image001

Planets Sun Sun Sun
Статистика раздачи
Автор: Nickolas3434 | Размер: 698.4 МБ | Добавлен: 16 фев 2015
Раздают: 15    Качают: 12
Скачать торрент
Скачать торрент
Описание торрента

СообщениеДобавлено: 16 фев 2015 

Информация о фильме
Оригинальное название: Алёша
Год выхода: 1980
Жанр: Драма, мелодрама, киноповесть
Режиссёр: Виктор Обухов
В ролях: Виталий Юшков, Наталья Флоренская, Владимир Шихов, Нина Веселовская, Геннадий Корольков, Елена Говорухина, Александр Мовчан, Эрнст Романов, Элла Некрасова, Пётр Любешкин, Виктор Остроухов, Сергей Бачурский, Пётр Кадочников, Георгий Кондратьев, Константин Максимов, Андрей Кашин, Владимир Сизов, Дмитрий Шилко
О фильме: В строительный техникум одного провинциального города из Москвы по направлению приезжает молодой преподаватель литературы Алексей Хромов. Не имея пока достаточного педагогического опыта, сам еще вчерашний студент, он с первого же дня включается в работу и сразу становится участником всех видимых и невидимых процессов, протекающих в жизни коллектива техникума.

Выпущено: СССР, Свердловская киностудия
Продолжительность: 01:07:58
Перевод: Не требуется
Файл
Качество: DVDRip [Исходник: DVD-5]
Видео: XviD, 1299 Кбит/с, 656x400 (1.640), 25 кадр/с
Аудио: Русский, MP3, 48000 Гц, 128 Кбит/с, 2 канала (Стерео) - Оригинал
Субтитры: Нет

General
Complete name : Alyosha.1980.DVDRip.700MB.avi
Format : AVI
Format/Info : Audio Video Interleave
File size : 698 MiB
Duration : 1h 7mn
Overall bit rate : 1 437 Kbps
Writing application : VirtualDubMod 1.5.10.3 (build 2550/release)
Writing library : VirtualDubMod build 2550/release
Copyright : rip by ivandubskoj
Video
ID : 0
Format : MPEG-4 Visual
Format profile : Advanced Simple@L5
Format settings, BVOP : 1
Format settings, QPel : No
Format settings, GMC : No warppoints
Format settings, Matrix : Default (MPEG)
Codec ID : XVID
Codec ID/Hint : XviD
Duration : 1h 7mn
Bit rate : 1 299 Kbps
Width : 656 pixels
Height : 400 pixels
Display aspect ratio : 1.640
Frame rate : 25.000 fps
Color space : YUV
Chroma subsampling : 4:2:0
Bit depth : 8 bits
Scan type : Progressive
Compression mode : Lossy
Bits/(Pixel*Frame) : 0.198
Stream size : 631 MiB (90%)
Writing library : XviD 73
Audio
ID : 1
Format : MPEG Audio
Format version : Version 1
Format profile : Layer 3
Codec ID : 55
Codec ID/Hint : MP3
Duration : 1h 7mn
Bit rate mode : Constant
Bit rate : 128 Kbps
Channel(s) : 2 channels
Sampling rate : 48.0 KHz
Compression mode : Lossy
Stream size : 62.2 MiB (9%)
Alignment : Aligned on interleaves
Interleave, duration : 40 ms (1.00 video frame)
Interleave, preload duration : 504 ms
Writing library : LAME3.99r
Encoding settings : -m s -V 4 -q 0 -lowpass 17 -b 128



Автор рипа - ivandubskoj



   Похожие торренты   Торрент   Размер 
В этой теме нет новых непрочитанных сообщений. Алеша (1980) DVDRip от Big111

12 | 7

1.08 ГБ

В этой теме нет новых непрочитанных сообщений. Алеша (1980) DVD5

0 | 2

3.84 ГБ

В этой теме нет новых непрочитанных сообщений. Алёша Птицын вырабатывает характер (1953) DVDRip

112 | 6

1.17 ГБ

В этой теме нет новых непрочитанных сообщений. Алёша Птицын вырабатывает характер (1953) DVDRip-AVC от New-Team

254 | 8

1.09 ГБ

В этой теме нет новых непрочитанных сообщений. Алёша Птицын вырабатывает характер (1953) DVDRip от New-Team

70 | 14

743.83 МБ

В этой теме нет новых непрочитанных сообщений. Алёша Птицын вырабатывает характер (1953) DVDRip от New-Team

56 | 2

1.09 ГБ

В этой теме нет новых непрочитанных сообщений. Алёша Lacoste - Лихие 90-е (2011) МР3

4 | 1

81.24 МБ




Вы не можете начинать темы
Вы не можете отвечать на сообщения
Вы не можете редактировать свои сообщения
Вы не можете удалять свои сообщения
Вы не можете добавлять вложения

Перейти:  
Для Мосгорсуда, Роскомнадзора и рекламодателей: mosgorsud-torrent[собачка]yandex.ru
 Вход
ppkBB3cker v.2 © 2008-2014 @ PPK
[ Time : 0.539s | 15 Queries | GZIP : On ]

Торрент трекер RUTOR.IN, Не можете зайти на rutor.org? Какой новый адрес рутор? Какое зеркало рутор? Не работает rutor.org и зеркала? Тогда наш торрент специально для вас. Rutor.in неофициальное зеркало rutor. В случае если у Вас заблокирован rutor или вдруг Вы не можете на него зайти, то Вы без труда сможете скачать бесплатно и без рекламы последние новинки кино, игр, сериалов и прочего у нас, на Rutor.in. Не нужно использовать прокси, чтобы зайти на рутор, достаточно воспользоваться нашим ресурсом. Все новые фильмы, игры, сериалы, книги и музыка за 2013 и 2014 годы через торрент бесплатно. Скачивайте фильмы в хорошем качестве, игры для пк, xbox, playstation без регистрации. У нас вы найдете новые Зарубежные сериалы и Русские сериалы 2013, 2014, 2015 годов. Оставайтесь с нами, качайте любимые фильмы, игры, сериалы, книги и музыку.